» » Михаил Шуфутинский - Белый аист (1987)

 
 
 

Михаил Шуфутинский - Белый аист (1987)

Автор: Ollleg от 2-03-2014, 09:01, посмотрело: 2862

6
Vinylrip by Svarnoy




Михаил Шуфутинский - Белый аист (1987)


Белый аист

Михаил Шуфутинский


Жанр: Шансон
Год выпуска: 1987
Количество композиций: 2 стороны пластинки целиком
Фирма: Мелодия (aprelevka sound)
Формат: lossless
Качество: flac 24 bit/96 kHz
Размер файла: 885 mb


Предпрослушка: mp3 cbr 320, Lamp. korr.


Скачать Шуфутинский - Белый аист (1987):

Внимание! У вас нет прав для просмотра скрытого текста.


Как скачивать с Яндекс диска!

Чтобы быстро скачать чужой опубликованный файл,
сохраните его на свой Диск.
На вашем Диске файл окажется мгновенно,
а свои файлы вы всегда можете скачать без ограничений.

Релиз понравился ? Скажи автору спасибо !

Категория: Vinyl Rip, Chanson

Уважаемый посетитель, Вы зашли на сайт как незарегистрированный пользователь.
Мы рекомендуем Вам зарегистрироваться либо войти на сайт под своим именем.
<
  • 9 комментариев
  • 1 публикация
  • ICQ:
1 марта 2014 16:26

svarnoy

  • Группа: Релизёр
  • Регистрация: 29.01.2014
  • Статус: Пользователь offline
 
Сырая версия рипа, обрабатывать нет ни времени ни желания, для любителей нетронутого звука без всякой обработки.
Спасибо Олегу за оформление.

<
  • 1527 комментариев
  • 699 публикаций
  • ICQ:
1 марта 2014 16:30

Ollleg

  • Группа: Vizitor
  • Регистрация: 14.07.2012
  • Статус: Пользователь offline
 
Володя, кому надо - сами обработают, многим наоборот нравится первый файл, они сами с ним делают, что им больше нравится. Кому надо- и "колбасу" на треки порежут.
Главное - звук!
Спасибо! smile-29

<
  • 509 комментариев
  • 104 публикации
  • ICQ:
1 марта 2014 17:43

xelena

  • Группа: Главный Редактор
  • Регистрация: 19.07.2012
  • Статус: Пользователь offline
 
Большое спасибо!

<
  • 7 комментариев
  • 0 публикаций
  • ICQ:
1 марта 2014 20:32

oleg42

  • Группа: Ветеран проекта
  • Регистрация: 20.02.2014
  • Статус: Пользователь offline
 
Большое спасибо!

<
  • 1527 комментариев
  • 699 публикаций
  • ICQ:
3 марта 2014 17:32

Ollleg

  • Группа: Vizitor
  • Регистрация: 14.07.2012
  • Статус: Пользователь offline
 
REM GENRE "Shanson"
REM DATE 1987
REM COMMENT "Оцифровка - СВАРНОЙ"
TITLE "Белый аист"
PERFORMER "Михаил Шуфутинский"
FILE "шуфутинский.flac" WAVE
TRACK 01 AUDIO
TITLE "Ну играй!"
PERFORMER "Михаил Шуфутинский"
INDEX 01 00:13:39
TRACK 02 AUDIO
TITLE "Моя Одесса"
PERFORMER "Михаил Шуфутинский"
INDEX 01 03:52:05
TRACK 03 AUDIO
TITLE "Начальник Беня"
PERFORMER "Михаил Шуфутинский"
INDEX 01 08:28:08
TRACK 04 AUDIO
TITLE "Нескучный сад"
PERFORMER "Михаил Шуфутинский"
INDEX 01 12:58:31
TRACK 05 AUDIO
TITLE "Крещатик"
PERFORMER "Михаил Шуфутинский"
INDEX 01 17:45:41
TRACK 06 AUDIO
TITLE "Белый аист"
PERFORMER "Михаил Шуфутинский"
INDEX 01 23:23:30
TRACK 07 AUDIO
TITLE "Супчик из цветной катустки"
PERFORMER "Михаил Шуфутинский"
INDEX 01 27:31:37
TRACK 08 AUDIO
TITLE "Наливай, поговорим!"
PERFORMER "Михаил Шуфутинский"
INDEX 01 30:09:55
TRACK 09 AUDIO
TITLE "Судьба"
PERFORMER "Михаил Шуфутинский"
INDEX 01 34:40:00
TRACK 10 AUDIO
TITLE "Я так не хочу"
PERFORMER "Михаил Шуфутинский"
INDEX 01 38:24:53
TRACK 11 AUDIO
TITLE "Скрипач Моня"
PERFORMER "Михаил Шуфутинский"
INDEX 01 41:26:06

Сам файл перезалит так же.

ДОБАВЛЕН WAV 32-96 - первый файл- оригинал

<
  • 3 комментария
  • 0 публикаций
  • ICQ:
7 марта 2014 07:40

aleksdat

  • Группа: Ветеран проекта
  • Регистрация: 12.08.2013
  • Статус: Пользователь offline
 
Спасибо, маме думаю, должно понравиться

Информация
Посетители, находящиеся в группе Гости, не могут оставлять комментарии к данной публикации.