» » AC/DC - Moneytalks (1990)

 
 
 

AC/DC - Moneytalks (1990)

Автор: Ollleg от 9-12-2013, 13:32, посмотрело: 1710

2
Vinyl-Rip by Ollleg



AC/DC - Moneytalks (1990)
AC/DC - Moneytalks (1990)
AC/DC - Moneytalks (1990)
AC/DC - Moneytalks (1990)


Moneytalks

AC/DC
( Оцифрован заново )

Жанр: Rock, Hard-rock
Год выпуска: 1990
Количество композиций: 3
Фирма: ATCO
Номер по каталогу: 7567-96408-0 LB
Формат: mp3 ; wav
Качество: cbr 320 kbps ; wav 16 bit/44,1 kHz ; wav 24 bit/96 kHz
Размер файла: 36 mb ; 121 mb ; 392 mb


Предпрослушка:Side one: mp3 cbr 320, Lamp. korr.


Предпрослушка:Side two: mp3 cbr 320, Lamp. korr.



Список композиций:
Side one:
01 - Moneytalks

Side two:
02 - Mistress for christmas
03 - Borrowed time







Скачать AC/DC - Moneytalks (1990) :
Пароль к архиву: ollleg001

Внимание! У вас нет прав для просмотра скрытого текста.


Как скачивать с Яндекс диска!

Чтобы быстро скачать чужой опубликованный файл,
сохраните его на свой Диск.
На вашем Диске файл окажется мгновенно,
а свои файлы вы всегда можете скачать без ограничений.

Релиз понравился ? Скажи автору спасибо !

Категория: Vinyl Rip, Rock, Art-rock, Hard-rock

Уважаемый посетитель, Вы зашли на сайт как незарегистрированный пользователь.
Мы рекомендуем Вам зарегистрироваться либо войти на сайт под своим именем.
<
  • 0 комментариев
  • 0 публикаций
  • ICQ:
4 ноября 2014 11:27

denparam

  • Группа: Гости
  • Регистрация: --
  • Статус:
 
А где же CUE

<
  • 509 комментариев
  • 104 публикации
  • ICQ:
4 ноября 2014 18:55

xelena

  • Группа: Главный Редактор
  • Регистрация: 19.07.2012
  • Статус: Пользователь offline
 
AC-DC - Moneytalks (1990).CUE
---------------------------------------------
REM GENRE Hard-rock
REM DATE 1990
REM COMMENT Vinyl-rip by Ollleg
PERFORMER "AC/DC"
TITLE "Moneytalks"
FILE "AC-DC Singl a.wav" WAVE
TRACK 01 AUDIO
TITLE "Moneytalks"
INDEX 01 00:00:00
FILE "AC-DC Singl b.wav" WAVE
TRACK 02 AUDIO
TITLE "Mistress for christmas"
INDEX 01 00:00:00
TRACK 03 AUDIO
TITLE "Borrowed time"
INDEX 01 04:02:37

Информация
Посетители, находящиеся в группе Гости, не могут оставлять комментарии к данной публикации.