» » Eagles - Desperado 1973

 
 
 

Eagles - Desperado 1973

Автор: gitarist от 28-10-2013, 00:17, посмотрело: 1598

4
Eagles - Desperado 1973


Информация о пластинке:
Название: Desperado
Исполнитель: Eagles
Жанр: Rock, Country Rock
Год выпуска: 1973
Количество композиций: 11
Количество пластинок: 1
Фирма: Asylum Records
Номер по каталогу: K 53 008

Информация о файле с оцифровкой:
Формат: mp3 + flac
Качество: cbr 320 kbps + lossless 16/48 kHz
Размер файла: 83,6 + 204,6 Мб

Предпрослушка: mp3 cbr 192 kbps


Список композиций:

Side 1
01 Doolin - Dalton
02 Twenty - One
03 Out Of Control
04 Tequila Sunrise
05 Desperado

Side 2
06 Certain Kind Of Fool
07 Doolin' Dalton (instrumental)
08 Outlaw Man
09 Saturday Night
10 Bitter Creek
11 Doolin' Dalton / Desperado Reprise


Скачать mp3:
Внимание! У вас нет прав для просмотра скрытого текста.


Релиз понравился ? Скажи автору спасибо !

Категория: Vinyl Rip, Rock, Art-rock, Hard-rock

Уважаемый посетитель, Вы зашли на сайт как незарегистрированный пользователь.
Мы рекомендуем Вам зарегистрироваться либо войти на сайт под своим именем.
<
  • 410 комментариев
  • 0 публикаций
  • ICQ: 130
28 октября 2013 04:58

aktimel

  • Группа: Ветеран проекта
  • Регистрация: 7.11.2012
  • Статус: Пользователь offline
 
спасибо

<
  • 33 комментария
  • 14 публикаций
  • ICQ:
28 октября 2013 11:24

gitarist

  • Группа: Релизёр
  • Регистрация: 14.08.2013
  • Статус: Пользователь offline
 
Пожалуйста!

--------------------

<
  • 541 комментарий
  • 105 публикаций
  • ICQ:
29 октября 2013 20:17

xelena

  • Группа: Главный Редактор
  • Регистрация: 19.07.2012
  • Статус: Пользователь offline
 
Спасибо!
---------------------------------------
Eagles - Desperado.cue
---------------------------------------
REM GENRE Rock, Country Rock
REM DATE 1973
REM COMMENT Оцифровка gitarist\http://retrovinylcdmc.ucoz.org/
PERFORMER "Eagles"
TITLE "Desperado"
FILE "01 - Side 1.flac" WAVE
TRACK 01 AUDIO
TITLE "Doolin-Dalton"
INDEX 01 00:00:00
TRACK 02 AUDIO
TITLE "Twenty-One"
INDEX 01 03:30:37
TRACK 03 AUDIO
TITLE "Out Of Control"
INDEX 01 05:40:71
TRACK 04 AUDIO
TITLE "Tequila Sunrise"
INDEX 01 08:51:00
TRACK 05 AUDIO
TITLE "Desperado"
INDEX 01 11:47:15
FILE "02 - Side 2.flac" WAVE
TRACK 06 AUDIO
TITLE "Certain Kind Of Fool"
INDEX 01 00:00:00
TRACK 07 AUDIO
TITLE "Doolin-Dalton (Instrumental)"
INDEX 01 03:00:60
TRACK 08 AUDIO
TITLE "Outlaw Man"
INDEX 01 03:48:00
TRACK 09 AUDIO
TITLE "Saturday Night"
INDEX 01 07:20:74
TRACK 10 AUDIO
TITLE "Bitter Creek"
INDEX 01 10:39:00
TRACK 11 AUDIO
TITLE "Doolin-Dalton / Desperado (Reprise)"
INDEX 01 15:38:73

<
  • 1825 комментариев
  • 818 публикаций
  • ICQ:
4 ноября 2013 10:20

Ollleg

  • Группа: Vizitor
  • Регистрация: 14.07.2012
  • Статус: Пользователь offline
 
Спасибо за куй!

Информация
Посетители, находящиеся в группе Гости, не могут оставлять комментарии к данной публикации.