» » A-ha - Memorial Beach (1993)

 
 
 

A-ha - Memorial Beach (1993)

Автор: Ollleg от 6-09-2013, 17:30, посмотрело: 2725

4
Vinyl-Rip by Ollleg



A-ha - Memorial Beach (1993)



Название:
Memorial Beach

Исполнитель:
A-ha

Жанр: SYNTH POP
Год выпуска: 1993
Количество композиций: 9
Фирма: ***РОССИЯ /// Warner Bros. Records. Made in EU
Номер по каталогу: ABC 501
Формат: mp3 + lossless
Качество: cbr 320 kbps + flac 24 bit/96 kHz
Размер файла: 104 mb + 1.01 gb

Норвежская группа A-Ha — один из ведущих коллективов стиля электро-поп, появившегося на излете «новой волны». Музыке A-Ha присущи графичный, несколько холодноватый («скандинавский») синтезаторно-гитарный саунд, выразительная балладная мелодика вкупе с ненавязчивой танцевальностью, романтичное, исполненное (порой) лёгкой грусти настроение. Для многих песни A-Ha являются ностальгическим символом юности и нежных отношений.

Предпрослушивание: lp,mp3-320


Список композиций:
Side one:
01. Dark Is The Night For All
02. Move To Memphis
03. Cold As Stone
04. Angel In The Snow

Side two:
05. Locust
06. Lie Down In Darkness
07. Lamb To The Slaughter
08. Between Your Mama And Yourself
09. Memorial Beach







СUE для релиза под спойлером
*любезно предоставил Главный редактор XELENA :

 CUE


Скачать A-ha - Memorial Beach (1993):
Пароль к архиву: ollleg001

Внимание! У вас нет прав для просмотра скрытого текста.


Релиз понравился ? Скажи автору спасибо !

Категория: Vinyl Rip, synth pop

Уважаемый посетитель, Вы зашли на сайт как незарегистрированный пользователь.
Мы рекомендуем Вам зарегистрироваться либо войти на сайт под своим именем.
<
  • 509 комментариев
  • 104 публикации
  • ICQ:
6 сентября 2013 21:33

xelena

  • Группа: Главный Редактор
  • Регистрация: 19.07.2012
  • Статус: Пользователь offline
 
Otlichnaya annotacia!!! I rezume v samuiu tochku! Spasibo!
----------------------------------------------------------------------
A-ha - Memorial Beach (1993).cue
----------------------------------------------------------------------
REM GENRE SYNTH POP
REM DATE 1993
REM COMMENT ***РОССИЯ /// Warner Bros. Records. Made in EU\ABC 501\vinilrip by ollleg
PERFORMER "A-ha"
TITLE "Memorial Beach"
FILE "A-ha -memorial beach side A.flac" WAVE
TRACK 01 AUDIO
TITLE "Dark Is The Night For All "
INDEX 01 00:00:00
TRACK 02 AUDIO
TITLE "Move To Memphis"
INDEX 01 03:42:60
TRACK 03 AUDIO
TITLE "Cold As Stone"
INDEX 01 08:04:36
TRACK 04 AUDIO
TITLE "Angel In The Snow"
INDEX 01 16:24:19
FILE "A-ha -memorial beach side B2.flac" WAVE
TRACK 05 AUDIO
TITLE "Locust"
INDEX 01 00:00:00
TRACK 06 AUDIO
TITLE "Lie Down In Darkness"
INDEX 01 05:08:02
TRACK 07 AUDIO
TITLE "Lamb To The Slaughter"
INDEX 01 09:40:00
TRACK 08 AUDIO
TITLE "Between Your Mama And Yourself"
INDEX 01 14:00:35
TRACK 09 AUDIO
TITLE "Memorial Beach"
INDEX 01 18:16:60

<
  • 1519 комментариев
  • 695 публикаций
  • ICQ:
7 сентября 2013 13:07

Ollleg

  • Группа: Vizitor
  • Регистрация: 14.07.2012
  • Статус: Пользователь Онлайн
 
xelena, спасибо!

<
  • 0 комментариев
  • 0 публикаций
  • ICQ:
4 июля 2014 09:38

mikrolux

  • Группа: Гости
  • Регистрация: --
  • Статус:
 
отличный релиз рип никакой без обид

<
  • 1519 комментариев
  • 695 публикаций
  • ICQ:
7 июля 2014 07:15

Ollleg

  • Группа: Vizitor
  • Регистрация: 14.07.2012
  • Статус: Пользователь Онлайн
 
Цитата: mikrolux
отличный релиз рип никакой без обид

Какие обиды?
Есть лучшего качества - выставляйте, все только спасибо скажут!
smile-33

Информация
Посетители, находящиеся в группе Гости, не могут оставлять комментарии к данной публикации.