» » Дюк Эллингтон встречается с Коулменом Хокинсом (1978)

 
 
 

Дюк Эллингтон встречается с Коулменом Хокинсом (1978)

Автор: Ollleg от 27-08-2013, 23:00, посмотрело: 5539

1
CD - Rir



Дюк Эллингтон встречается с Коулменом Хокинсом (1978)



Название:
Дюк Эллингтон встречается с Коулменом Хокинсом

Исполнитель:
Дюк Эллингтон, Коулмен Хокинс

Жанр: Jazz
Год выпуска: 1978 (запись 1962)
Количество композиций: 8
Фирма: Meлодия
Номер по каталогу: С60-10263-64
Формат: mp3 + lossless
Качество: cbr 320 kbps + flac 24 bit/96 kHz
Размер файла: 93 mb + 803 mb

Предпрослушивание: lp,mp3-320


Список композиций:
01.-Limbo Jazz
02.-Mood Indigo
03.-Ray Charles' Place
04.-Wanderlust
05.-You Dirty Dog
06.-Salf Portrait
07.-The Jeep Is Jumpng
08.-The Ricitic







СUE для релиза под спойлером
*любезно предоставил Главный редактор XELENA :

 CUE


Скачать Дюк Эллингтон встречается с Коулменом Хокинсом (1978):
Пароль к архиву: ollleg001

Внимание! У вас нет прав для просмотра скрытого текста.



[/hide]

Релиз понравился ? Скажи автору спасибо !

Категория: Vinyl Rip, Jazz, Blues, Soul

Уважаемый посетитель, Вы зашли на сайт как незарегистрированный пользователь.
Мы рекомендуем Вам зарегистрироваться либо войти на сайт под своим именем.
<
  • 556 комментариев
  • 102 публикации
  • ICQ:
28 августа 2013 09:07

xelena

  • Группа: ГЛАВНЫЙ РЕДАКТОР
  • Регистрация: 19.07.2012
  • Статус: Пользователь offline
 
Auuu, liubimeishaia plastinka!
-----------------------------------------------------------------
Дюк Эллингтон встречается с Коулменом Хокинсом.cue
-----------------------------------------------------------------
REM GENRE Jazz
REM DATE 1978
REM COMMENT (запись 1962)\Meлодия\С60-10263-64\Vinylrip by Ollleg
PERFORMER "Дюк Эллингтон - Коулмен Хокинс / Duke Ellington - Coleman Hawkins"
TITLE " Duke Ellington Meets Coleman Hawkins / Дюк Эллингтон Встречается С Коулменом Хокинсом"
FILE "Duk ELLING. KOYLL side A.flac" WAVE
TRACK 01 AUDIO
TITLE "Limbo Jazz / Забытый Джаз"
INDEX 01 00:00:00
TRACK 02 AUDIO
TITLE "Mood Indigo / Настроение 'Индиго'"
INDEX 01 05:09:73
TRACK 03 AUDIO
TITLE "Ray Charles' Place / Дом Рэя Чарльза"
INDEX 01 11:01:38
TRACK 04 AUDIO
TITLE " Wanderlust / Страсть К Путешествиям"
INDEX 01 15:04:37
FILE "Duk ELLING. KOYLL side B-2.flac" WAVE
TRACK 05 AUDIO
TITLE "You Dirty Dog / Паршивый Пёс"
INDEX 01 00:00:00
TRACK 06 AUDIO
TITLE "Salf Portrait / Автопортрет"
INDEX 01 04:16:37
TRACK 07 AUDIO
TITLE "The Jeep Is Jumpng / Скачущий Джип"
INDEX 01 08:13:19
TRACK 08 AUDIO
TITLE "The Ricitic"
INDEX 01 12:52:66

Информация
Посетители, находящиеся в группе Гости, не могут оставлять комментарии к данной публикации.