» » Валерий Ковтун - Брызги шампанского (1991)

 
 
 

Валерий Ковтун - Брызги шампанского (1991)

Автор: Ollleg от 26-08-2013, 12:10, посмотрело: 3443

1
Vinyl-Rip by Ollleg



Валерий Ковтун - Брызги шампанского (1991)



Название:
Брызги шампанского

Исполнитель:
Валерий Ковтун

Жанр: Jazz, accordeon
Год выпуска: 1991 (запись 1990)
Количество композиций: 11
Фирма: Meлодия
Номер по каталогу: С60 30661 000
Формат: mp3 + lossless
Качество: cbr 320 kbps + flac 24 bit/96 kHz
Размер файла: 112 mb + 1.01 gb

Предпрослушивание: lp,mp3-320


Список композиций:
сторона 1:
1 - БРЫЗГИ ШАМПАНСКОГО
(обработка В.Ковтуна) - 3.39
2 - ПРЕДСТАВЛЕНИЕ О ПАРИЖЕ
(В.Ковтун) - 4.00
3 - МОЛДАВСКИЕ НАИГРЫШИ
(В.Ковтун) - 5.29
4 - ЛЮБИМЫЙ МОЙ
(Дж.Гершвин, обработка В.Ковтуна) - 5.06
5 - УТОМЛЁННОЕ СОЛНЦЕ
(Ю.Петербургский, обработка В.Ковтуна) - 4.26

сторона 2:
6 - ЛАМБАДА
(обработка В.Ковтуна) - 3.52
7 - ДОМИНО
(обработка В.Ковтуна) - 3.34
8 - ЦВЕТУЩИЙ МАЙ
(А.Полонский, обработка В.Ковтуна) - 3.26
9 - ЧАРДАШ
(В.Монти, обработка В.Ковтуна) - 3.37
10 - ЮГОСЛАВСКОЕ КОЛО
(обработка В.Ковтуна) - 3.19
11 - НЕ УЕЗЖАЙ ТЫ, МОЙ ГОЛУБЧИК
(обработка В.Ковтуна) - 4.52

Юрий Полозов - гитара
Владимир Тимашов - бас
Максим Ширин - ударные
Константин Смотрин - ударные







СUE для релиза под спойлером
*любезно предоставил Главный редактор XELENA :

 CUE


Скачать Валерий Ковтун - Брызги шампанского (1991) :
Пароль к архиву: ollleg001

Внимание! У вас нет прав для просмотра скрытого текста.


Релиз понравился ? Скажи автору спасибо !

Категория: Vinyl Rip, Tango, Jazz, Blues, Soul

Уважаемый посетитель, Вы зашли на сайт как незарегистрированный пользователь.
Мы рекомендуем Вам зарегистрироваться либо войти на сайт под своим именем.
<
  • 509 комментариев
  • 104 публикации
  • ICQ:
26 августа 2013 18:58

xelena

  • Группа: Главный Редактор
  • Регистрация: 19.07.2012
  • Статус: Пользователь offline
 
Валерий Ковтун - 1991 - Брызги шампанского (запись 1990).cue
----------------------------------------------------------------------------
REM GENRE Jazz, accordeon
REM DATE 1991
REM COMMENT (запись 1990)\Meлодия\С60 30661 000\Vinylrip by Ollleg
PERFORMER "Валерий Ковтун"
TITLE "Брызги шампанского"
FILE "V.KOVTUN side A.flac" WAVE
TRACK 01 AUDIO
TITLE "БРЫЗГИ ШАМПАНСКОГО"
INDEX 01 00:00:00
TRACK 02 AUDIO
TITLE "ПРЕДСТАВЛЕНИЕ О ПАРИЖЕ"
INDEX 01 03:46:67
TRACK 03 AUDIO
TITLE "МОЛДАВСКИЕ НАИГРЫШИ"
INDEX 01 07:52:45
TRACK 04 AUDIO
TITLE "ЛЮБИМЫЙ МОЙ"
INDEX 01 13:28:00
TRACK 05 AUDIO
TITLE "УТОМЛЁННОЕ СОЛНЦЕ"
INDEX 01 18:39:22
FILE "V.KOVTUN side B.flac" WAVE
TRACK 06 AUDIO
TITLE "ЛАМБАДА"
INDEX 01 00:00:00
TRACK 07 AUDIO
TITLE "ДОМИНО"
INDEX 01 03:58:38
TRACK 08 AUDIO
TITLE "ЦВЕТУЩИЙ МАЙ"
INDEX 01 07:38:53
TRACK 09 AUDIO
TITLE "ЧАРДАШ"
INDEX 01 11:11:38
TRACK 10 AUDIO
TITLE "ЮГОСЛАВСКОЕ КОЛО"
INDEX 01 14:54:37
TRACK 11 AUDIO
TITLE "НЕ УЕЗЖАЙ ТЫ, МОЙ ГОЛУБЧИК"
INDEX 01 18:19:37

Информация
Посетители, находящиеся в группе Гости, не могут оставлять комментарии к данной публикации.