» » IX московский фестиваль джазовой музыки (1985)

 
 
 

IX московский фестиваль джазовой музыки (1985)

Автор: Ollleg от 26-08-2013, 11:26, посмотрело: 1193

2
Vinyl-Rip by Ollleg



IX московский фестиваль джазовой музыки (1985)



Название:
IX московский фестиваль джазовой музыки

Исполнитель:
Разные

Жанр: Jazz
Год выпуска: 1985 (запись 1984)
Количество композиций: 7
Фирма: Meлодия
Номер по каталогу: С60 22479 004
Формат: mp3 + lossless
Качество: cbr 320 kbps + flac 24 bit/96 kHz
Размер файла: 94 mb + 797 mb

Предпрослушивание: lp,mp3-320


Список композиций:
сторона 1:
01. Большой блюз (Д. Холл) — Аркадий Шилклопер - валторна,
Михаил Каретников - контрабас
02. Ноктюрн (Б. Фрумкин — А. Римицан) — Лариса Долина, Трио
Давида Азаряна
03. Письмо другу (Г. Гольштейн) — Квинтет Игоря Бутмана

сторона 2:
04. Орнитология (Ч. Паркер) — Татевик Оганесян - вокал,
Ансамбль Игоря Бриля
05. Я нашел ритм (Дж. Гершвин) — Московский квартет
саксофонов Льва Михайлова, Ансамбль Игоря Бриля
06. Где же тут любовь? (А. Эшпай) — Джаз-ансамбль Давида
Голощекина
07. Композиция на тему из оперетты Н. Стрельникова "Холопка"
(Е. Баранов) — Капелла "Дикси" Льва Лебедева







СUE для релиза под спойлером
*любезно предоставил Главный редактор XELENA :

 CUE


Скачать IX московский фестиваль джазовой музыки (1985) :
Пароль к архиву: ollleg001

Внимание! У вас нет прав для просмотра скрытого текста.





Релиз понравился ? Скажи автору спасибо !

Категория: Vinyl Rip, Instrumental,Orchestra, Jazz, Blues, Soul

Уважаемый посетитель, Вы зашли на сайт как незарегистрированный пользователь.
Мы рекомендуем Вам зарегистрироваться либо войти на сайт под своим именем.
<
  • 509 комментариев
  • 104 публикации
  • ICQ:
26 августа 2013 18:57

xelena

  • Группа: Главный Редактор
  • Регистрация: 19.07.2012
  • Статус: Пользователь offline
 
VA - 1985 - IX московский фестиваль джазовой музыки (запись 1984).cue
--------------------------------------------------------------------------------
--------
REM GENRE Jazz
REM DATE 1985
REM COMMENT (запись 1984)\Meлодия\С60 22479 004\Vinylrip by Ollleg
PERFORMER "V A"
TITLE "IX московский фестиваль джазовой музыки"
FILE "IX vestival of jazz side A.flac" WAVE
TRACK 01 AUDIO
TITLE "Большой блюз"
PERFORMER "Аркадий Шилклопер - валторна, Михаил Каретников - контрабас"
INDEX 01 00:00:00
TRACK 02 AUDIO
TITLE "Ноктюрн"
PERFORMER "Лариса Долина, Трио Давида Азаряна"
INDEX 01 04:48:37
TRACK 03 AUDIO
TITLE "Письмо другу"
PERFORMER "Квинтет Игоря Бутмана"
INDEX 01 09:21:01
FILE "IX vestival of jazz side B.flac" WAVE
TRACK 04 AUDIO
TITLE "Орнитология"
PERFORMER "Татевик Оганесян - вокал, Ансамбль Игоря Бриля"
INDEX 01 00:00:00
TRACK 05 AUDIO
TITLE "Я нашел ритм"
PERFORMER "Московский квартет саксофонов Льва Михайлова, Ансамбль Игоря Бриля"
INDEX 01 03:21:60
TRACK 06 AUDIO
TITLE "Где же тут любовь?"
PERFORMER "Джаз-ансамбль Давида Голощекина"
INDEX 01 07:24:43
TRACK 07 AUDIO
TITLE "Композиция на тему из оперетты Н. Стрельникова 'Холопка' "
PERFORMER "Капелла 'Дикси' Льва Лебедева"
INDEX 01 15:24:07

<
  • 11 комментариев
  • 0 публикаций
  • ICQ:
21 октября 2013 12:11

zztop

  • Группа: Ветеран проекта
  • Регистрация: 21.10.2013
  • Статус: Пользователь offline
 
СПАСИБО !

Информация
Посетители, находящиеся в группе Гости, не могут оставлять комментарии к данной публикации.