» » Пол Маккартни + ансамбль WINGS (1977)

 
 
 

Пол Маккартни + ансамбль WINGS (1977)

Автор: Ollleg от 25-08-2013, 12:57, посмотрело: 7613

4
Vinyl-Rip by Ollleg



Пол Маккартни + ансамбль WINGS (1977)



Название:
Пол Маккартни + ансамбль WINGS

Исполнитель:
Пол Маккартни

Жанр: Rock
Год выпуска: 1977
Количество композиций: 9
Фирма: Meлодия
Номер по каталогу: 33 C 60-08733-4
Формат: mp3 + lossless
Качество: cbr 320 kbps + flac 24 bit/96 kHz
Размер файла: 102 mb + 847 mb

Предпрослушивание: lp,mp3-320

Список композиций:
Cторона 1 :
1. SILLY LOVE SONGS (P.McCartney)
2. JET (P.McCartney) ©
3. BLUEBIRD(P.McCartney)
4. MRS.VANDENBILT (P.McCartney)
5. LET ME ROLL IT (P.McCartney)
Сторона 2 :
6. MAMUNIA (P.McCartney)
7. NO WORDS (P.McCartney)
8. PICASSO’S LAST WORDS (DRINK TO ME) (P.McCartney)
9. NINETEEN HUNDRED AND EIGHTY FIVE (P.McCartney)

Изготовлено по лицензии фирмы EMI Records (Великобритания). Записи 1974-76 гг.







СUE для релиза под спойлером
*любезно предоставил Главный редактор XELENA :

 CUE


Скачать Пол Маккартни + ансамбль WINGS (1977) :
Пароль к архиву: ollleg001

Внимание! У вас нет прав для просмотра скрытого текста.





Релиз понравился ? Скажи автору спасибо !

Категория: Vinyl Rip, Rock, Art-rock, Hard-rock

Уважаемый посетитель, Вы зашли на сайт как незарегистрированный пользователь.
Мы рекомендуем Вам зарегистрироваться либо войти на сайт под своим именем.
<
  • 82 комментария
  • 6 публикаций
  • ICQ:
25 августа 2013 13:11

Valera123

  • Группа: Релизёр
  • Регистрация: 7.05.2013
  • Статус: Пользователь offline
 
Пол Маккартни и ансамбль "Крылья" – ПОЛ МАККАРТНИ + АНСАМБЛЬ «WINGS»

По сути, данная пластинка является неполной/изменённой британской версией альбома BAND ON THE RUN 1973 года, из которого фирма "Мелодия" выбросила заглавную песню Band On The Run (Банда в бегах) и заменила её композицией Silly Love Songs (Глупые песенки о любви) из альбома WINGS AT THE SPEED OF SOUND 1976 года. Правда, название этой песни на русский язык было "переведено" как Я тебя люблю – видимо, из-за легкомысленности оригинального названия. В своё время также ходили слухи по поводу изменения оригинального названия всей пластинки и изъятия одноимённой песни: скорей всего, советские функционеры от культуры решили, что не стоит популяризировать песню, посвящённую какой-то там банде в бегах. Тем более, иметь целую пластинку с таким неприличным, по их мнению, названием.

Продолжение тут:

Внимание! У вас нет прав для просмотра скрытого текста.

<
  • 542 комментария
  • 105 публикаций
  • ICQ:
25 августа 2013 19:13

xelena

  • Группа: Главный Редактор
  • Регистрация: 19.07.2012
  • Статус: Пользователь offline
 
Пол Маккартни + ансамбль WINGS.cue
-----------------------------------------------
REM GENRE Rock
REM DATE 1977
REM COMMENT Meлодия\33 C 60-08733-4\Vinylrip by Ollleg
PERFORMER "Пол Маккартни + ансамбль WINGS"
TITLE "Пол Маккартни и ансамбль 'Крылья'"
FILE "WINGS side A.flac" WAVE
TRACK 01 AUDIO
TITLE "Я тебя люблю / Silly Love Songs"
INDEX 01 00:00:00
TRACK 02 AUDIO
TITLE "Джет / Jet"
INDEX 01 05:53:60
TRACK 03 AUDIO
TITLE "Синяя птица / Bluebird"
INDEX 01 09:59:74
TRACK 04 AUDIO
TITLE "Миссис Вэндебилт/ Mrs. Vandebilt"
INDEX 01 13:22:71
TRACK 05 AUDIO
TITLE "Хочу отдать тебе сердце / Let Me Roll It"
INDEX 01 18:01:30
FILE "WINGS side B.flac" WAVE
TRACK 06 AUDIO
TITLE "Мамуниа / Mamunia"
INDEX 01 00:00:00
TRACK 07 AUDIO
TITLE "Нет слов / No Words"
INDEX 01 04:47:40
TRACK 08 AUDIO
TITLE "Последнее слово Пикассо / Picasso's Last Words (Drink To Me)"
INDEX 01 07:24:45
TRACK 09 AUDIO
TITLE "1985-й / Nineteen Hundred And Eighty Five"
INDEX 01 13:13:22

<
  • 159 комментариев
  • 0 публикаций
  • ICQ:
26 августа 2013 23:31

supermouper

  • Группа: Ветеран проекта
  • Регистрация: 19.06.2013
  • Статус: Пользователь offline
 
ОБАЛДЕТЬЬ)) наш ОЛЕГ
идёт в гору..еле релизы успеваешь качать
даже мелодия менее интенсивно цифровала...
воще нравятся советские абба имэджин вингс би джиз
хозяйке на заметку... smile-00

<
  • 1825 комментариев
  • 818 публикаций
  • ICQ:
27 августа 2013 10:41

Ollleg

  • Группа: Vizitor
  • Регистрация: 14.07.2012
  • Статус: Пользователь offline
 
Саня, рад тебя слышать.
Время выдалось - малость "нацифровал"... smile-14
Абба и БониМе "советские" лежат, но там конкретно топорный запил вместо звука, цифровать не имеет смысла.... smile-61

Информация
Посетители, находящиеся в группе Гости, не могут оставлять комментарии к данной публикации.