» » СЪБОТА ВЕЧЕР (1977)

 
 
 

СЪБОТА ВЕЧЕР (1977)

Автор: Ollleg от 24-08-2013, 12:00, посмотрело: 3969

7
Vinyl-Rip by Ollleg



СЪБОТА ВЕЧЕР (1977)

СЪБОТА ВЕЧЕР (1977)



Название:
СЪБОТА ВЕЧЕР

Исполнитель:
Разные исполнители

Жанр: Зарубежная эстрада, pop, rock
Год выпуска: 1977
Количество композиций: 12
Фирма: BALKANTON , Record Plant - Bulgaria - Sofia 12
Номер по каталогу: BTA-1740
Формат: mp3 + lossless
Качество: cbr 320 kbps + flac 24 bit/96 kHz + flac 16 bit/44 kHz
Размер файла: 97 mb + 251 mb + 861 mb

Предпрослушивание: lp,mp3-320


Список композиций:
1 страна
01 - МОЙ ПРИЯТЕЛ - ЖИЛБЕРТ О'СЪЛИВАН
02 - ЩАСТЛИВ 16-и РОЖДЕН ДЕН - ГЪЛИВЕР
Нил Седака
03 - МИЛА - СИМОН БЪТЕРФЛАЙ
Саймън, Барнес
04 - ГОДИШНИ ВРЕМЕНА - ТЕРИ ДЖАКС
05 - СЪБОТА ВЕЧЕР - "БЕЙ СИТИ РОЛЪРС"
Мартин, Конитър
06 - ЕДНО И ЕДНО Е ЕДНО - "МЕДИСИН ХЕД"
Дж.Фидлер

2 страна
07 - ЗАВРЪЩАНЕ - НИЛ СЕДАКА
Нил Седака
08 - ЗВЪНИ, ЗВЪНИ... - БЬОРН-БЕНИ-АНА-ФРИДА
Б.Андерсън, С.Андерсън, Б.Вивенс, Н.Седака
09 - ТОЗИ ДНЕШЕН СВЯТ Е ЕДНА ГОЛЯМА БЪРКОТИЯ - ДОНА ХАЙТАУЪР
10 - АКО МОЖЕХ ДА БЪДА - "БИ ДЖИЙЗ"
Б.Гиб
11 - МОЯТ ПРИЯТЕЛ СТЕН - "СЛЕЙД"
Холдър, Ли
12 - В ТВОЕТО СЪРЦЕ - ДАЛИА ЛАВИ
Дж.Конгос, Димитриу

-------------------------------
01. A Friend Of Mine - Gilbert O'Sullivan
02. Happy Birthday Sweet Sixteen - Gulliver
03. Darling - Simon Butterfly
04. Seasons In The Sun - Terry Jacks
05. Saturday Night - Bay City Rollers (B. Martin, P. Coniter)
06. One And One Is One - Medicine Head
07. Standing On The Inside - Neil Sedaka (Neil Sedaka)
08. Ring, Ring - Bjorn-Benny-Anna-Frida (B.Andersson, S.Andersson, B.Vivaens, N.Sedaka)
09. This World Is A Mess - Donna Hightower (Maurice Albert)
10. Wouldn't I Be Someone - The Bee Gees (B. R. M. Gibb)
11. My Friend Stan - Slade (Holder-Lea)
12. Let The Love Grow (In Your Heart) - Daliah Lavi (Joh Kongos, Demitriou)







СUE для релиза под спойлером
*любезно предоставил Главный редактор XELENA :

 CUE


Скачать СЪБОТА ВЕЧЕР (1977), Vinyl-rip :
Пароль к архиву: ollleg001

Внимание! У вас нет прав для просмотра скрытого текста.


Релиз понравился ? Скажи автору спасибо !

Категория: Vinyl Rip, pop muzic

Уважаемый посетитель, Вы зашли на сайт как незарегистрированный пользователь.
Мы рекомендуем Вам зарегистрироваться либо войти на сайт под своим именем.
<
  • 509 комментариев
  • 104 публикации
  • ICQ:
25 августа 2013 10:59

xelena

  • Группа: Главный Редактор
  • Регистрация: 19.07.2012
  • Статус: Пользователь offline
 
Shykarnyi Sbornik! Thnx!
----------------------------
VA-СЪБОТА ВЕЧЕР.cue
----------------------------
REM GENRE Зарубежная эстрада, pop, rock
REM DATE 1977
REM COMMENT BALKANTON , Record Plant - Bulgaria - Sofia 12\BTA-1740\Vinylrip by Ollleg
PERFORMER "Various Artists"
TITLE "СЪБОТА ВЕЧЕР"
FILE "VA-SOFIA 12 side A.flac" WAVE
TRACK 01 AUDIO
TITLE "МОЙ ПРИЯТЕЛ / A Friend Of Mine"
PERFORMER "ЖИЛБЕРТ О'СЪЛИВАН / Gilbert O'Sullivan"
INDEX 01 00:00:00
TRACK 02 AUDIO
TITLE "ЩАСТЛИВ 16-и РОЖДЕН ДЕН / Happy Birthday Sweet Sixteen"
PERFORMER "ГЪЛИВЕР / Gulliver"
INDEX 01 03:16:25
TRACK 03 AUDIO
TITLE "МИЛА / Darling"
PERFORMER "СИМОН БЪТЕРФЛАЙ / Simon Butterfly"
INDEX 01 06:01:00
TRACK 04 AUDIO
TITLE "ГОДИШНИ ВРЕМЕНА / Seasons In The Sun"
PERFORMER "ТЕРИ ДЖАКС / Terry Jacks"
INDEX 01 08:50:15
TRACK 05 AUDIO
TITLE "СЪБОТА ВЕЧЕР / Saturday Night"
PERFORMER "'БЕЙ СИТИ РОЛЪРС' / Bay City Rollers"
INDEX 01 12:17:04
TRACK 06 AUDIO
TITLE "ЕДНО И ЕДНО Е ЕДНО / One And One Is One"
PERFORMER "'МЕДИСИН ХЕД' / Medicine Head"
INDEX 01 15:01:41
FILE "VA-SOFIA 12 side B.flac" WAVE
TRACK 07 AUDIO
TITLE "ЗАВРЪЩАНЕ / Standing On The Inside"
PERFORMER "НИЛ СЕДАКА / Neil Sedaka"
INDEX 01 00:00:00
TRACK 08 AUDIO
TITLE "ЗВЪНИ, ЗВЪНИ... / Ring, Ring"
PERFORMER "БЬОРН-БЕНИ-АНА-ФРИДА / Bjorn-Benny-Anna-Frida"
INDEX 01 04:03:73
TRACK 09 AUDIO
TITLE "ТОЗИ ДНЕШЕН СВЯТ Е ЕДНА ГОЛЯМА БЪРКОТИЯ / This World Is A Mess"
PERFORMER "ДОНА ХАЙТАУЪР / Donna Hightower"
INDEX 01 07:10:45
TRACK 10 AUDIO
TITLE "АКО МОЖЕХ ДА БЪДА / Wouldn't I Be Someone"
PERFORMER "'БИ ДЖИЙЗ' / The Bee Gess"
INDEX 01 10:00:37
TRACK 11 AUDIO
TITLE "МОЯТ ПРИЯТЕЛ СТЕН / My Friend Stan"
PERFORMER "'СЛЕЙД' / Slade"
INDEX 01 14:07:00
TRACK 12 AUDIO
TITLE "В ТВОЕТО СЪРЦЕ / Let The Love Grow (In Your Heart)"
PERFORMER "ДАЛИА ЛАВИ / Daliah Lavi"
INDEX 01 16:49:37

<
  • 1518 комментариев
  • 697 публикаций
  • ICQ:
25 августа 2013 12:01

Ollleg

  • Группа: Vizitor
  • Регистрация: 14.07.2012
  • Статус: Пользователь offline
 
xelena , Спасибо!
Вы мне очень помогаете,
С П А С И Б О !!! smile-28 smile-33

<
  • 509 комментариев
  • 104 публикации
  • ICQ:
25 августа 2013 14:23

xelena

  • Группа: Главный Редактор
  • Регистрация: 19.07.2012
  • Статус: Пользователь offline
 
Ochen' rada! Udachi!

<
  • 0 комментариев
  • 0 публикаций
  • ICQ:
21 сентября 2013 23:40

vladmax

  • Группа: Гости
  • Регистрация: --
  • Статус:
 
большое спасибо,- давно когда-то была и у меня такая пластинка....-как давно-то...

<
  • 1518 комментариев
  • 697 публикаций
  • ICQ:
22 сентября 2013 00:10

Ollleg

  • Группа: Vizitor
  • Регистрация: 14.07.2012
  • Статус: Пользователь offline
 
Рад, что пластинку эту народ помнит и многие с удовольствием слушают оцифровку с нее и сегодня. smile-08

<
  • 43 комментария
  • 3 публикации
  • ICQ:
22 сентября 2013 20:55

superglaz

  • Группа: Релизёр
  • Регистрация: 2.07.2013
  • Статус: Пользователь offline
 
Кто что ни говорил бы, а болгарский винил на уровне был. На хорошем. А меня, как израильтянина очень обрадовал конверт. С очень удачно сочетаеммым названием пластинки. Огромное спасибо за пластинку!

<
  • 1518 комментариев
  • 697 публикаций
  • ICQ:
22 сентября 2013 23:02

Ollleg

  • Группа: Vizitor
  • Регистрация: 14.07.2012
  • Статус: Пользователь offline
 
Цитата: superglaz
Кто что ни говорил бы, а болгарский винил на уровне был

Олег, полностью с тобой согласен! В СССР вообще любили не Мелодию, а издания демократов, при этом Болгары почти всегда звучали на 5.
Цитата: superglaz
Огромное спасибо за пластинку!

smile-33

Информация
Посетители, находящиеся в группе Гости, не могут оставлять комментарии к данной публикации.