» » София Ротару - Песни из к.ф. "Где, ты любовь", София Ротару и "Червона Рута" (1981)

 
 
 

София Ротару - Песни из к.ф. "Где, ты любовь", София Ротару и "Червона Рута" (1981)

Автор: Ollleg от 24-08-2013, 11:15, посмотрело: 4553

5
Vinyl-Rip by Ollleg



София Ротару - Песни из к.ф. "Где, ты любовь", София Ротару и "Червона Рута" (1981)

София Ротару - Песни из к.ф. "Где, ты любовь", София Ротару и "Червона Рута" (1981)



Название:
LP1 Песни из к.ф. "Где, ты любовь"
LP2 София Ротару и "Червона Рута"

Исполнитель:
Cофия Ротару

Жанр: Cоветская эстрада, pop
Год выпуска: 1981 ( запись 1980г.)
Количество композиций: 18 ( 9+9)
Фирма: Meлодия
Номер по каталогу: С60-16053-6
(комплект из 2 пластинок)
Формат: mp3 + lossless
Качество: cbr 320 kbps + flac 24 bit/96 kHz
Размер файла: 178 mb + 825 mb + 791 mb

Предпрослушивание: lp,mp3-320


Список композиций:
Пластинка 1
Песни из к.ф.
"Где ты, любовь"

сторона 1
01-Красная стрела
(А.Мажуков-Н.Зиновьев)-5.13
02-Первый дождь
(А.Зацепин-Л.Завальнюк)-4.54
03-Начало мая
(Р.Паулс-И.Резник)-4.53
04-Особый друг
(Р.Паулс-А.Вознесенский)-3.52
Ф.Красиловский(2)

сторона 2
05-Где ты любовь
(Р.Паулс-И.Резник)-3.39
06-Всё,как всегда
(А.Мажуков-Е.Митасов)-2.50
07-Приди
(Ж.Алдя Теодорович-Д.Матковский)-3.31
08-Мой милый Иванушка
(П.Теодорович-Д.Матковский)-3.28
09-Не забывай
(Ю.Саульский-Л.Завальнюк)-4.29

На молдавском языке(3,4)
Эстрадный оркестр
Дирижёр А.Михайлов

Пластинка 2
София Ротару
и "Червона Рута"

сторона 1
01-Родной край
(музыка и слова Н.Мозгового)-3.52
02-Ожидание
(Ю.Саульский-Л.Завальнюк)-4.29
03-Дети всей земли
(Е.Ширяев-Н.Волков)-3.11
04-Счастливый вечер
(П.Теодорович-С.Гимпу)-4.08
05-Я слышу голос твой
(П.Теодорович-Д.Матковский)-3.25

На украинском (1) и молдавском (4,5) языках

сторона 2
06-Любовь
(Б.Тарасов-Л.Малинский)-3.42
07-Осенняя песня
(Ж.Алдя-Теодорович-Д.Матковский)-4.16
08-Мир утверждает любовь
(А.Гольдинский-Ю.Северин)-4.08
09-Останься со мной
(А.Кирияк-М.Еминеску)-5.39

На молдавском(2,4) и украинском (3) языках
ВИА " ЧЕРВОНА РУТА"
Руководитель А.Евдокименко







СUE для релиза под спойлером
*любезно предоставил Главный редактор XELENA :

 CUE


Скачать София Ротару - Песни из к.ф. "Где, ты любовь",
София Ротару и "Червона Рута" (1981) 2LP Vinyl-rip :

Пароль к архиву: ollleg001

Внимание! У вас нет прав для просмотра скрытого текста.



Релиз понравился ? Скажи автору спасибо !

Категория: Vinyl Rip, СОВЕТСКАЯ ЭСТРАДА

Уважаемый посетитель, Вы зашли на сайт как незарегистрированный пользователь.
Мы рекомендуем Вам зарегистрироваться либо войти на сайт под своим именем.
<
  • 78 комментариев
  • 6 публикаций
  • ICQ:
24 августа 2013 12:00

Valera123

  • Группа: Релизёр
  • Регистрация: 7.05.2013
  • Статус: Пользователь offline
 
А на второй пластинке какого года записи???

<
  • 1518 комментариев
  • 697 публикаций
  • ICQ:
24 августа 2013 12:07

Ollleg

  • Группа: Vizitor
  • Регистрация: 14.07.2012
  • Статус: Пользователь offline
 
Цитата: Valera123
А на второй пластинке какого года записи???

1980 обе, пятаки под спойлером есть (Полноразмерные обложки:),
можешь посмотреть smile-33

<
  • 509 комментариев
  • 104 публикации
  • ICQ:
25 августа 2013 14:22

xelena

  • Группа: Главный Редактор
  • Регистрация: 19.07.2012
  • Статус: Пользователь offline
 
София Ротару (пластинка I) - Песни из к.ф. 'Где ты, любовь'.cue
-----------------------------------------------------------------------------
REM GENRE Cоветская эстрада, pop
REM DATE 1980
REM COMMENT Мелодия\С60-16053-6\Vinylrip by Ollleg
PERFORMER "София Ротару"
TITLE "Песни из к.ф. 'Где ты, любовь' "
FILE "SOFIA ROTARU lp1 side 1.flac" WAVE
TRACK 01 AUDIO
TITLE "Красная стрела"
INDEX 01 00:00:00
TRACK 02 AUDIO
TITLE "Первый дождь"
INDEX 01 05:12:52
TRACK 03 AUDIO
TITLE "Начало мая"
INDEX 01 10:07:60
TRACK 04 AUDIO
TITLE "Особый друг"
INDEX 01 14:59:40
FILE "SOFIA ROTARU lp1 side 2.flac" WAVE
TRACK 05 AUDIO
TITLE "Где ты, любовь"
INDEX 01 00:00:00
TRACK 06 AUDIO
TITLE "Всё, как всегда"
INDEX 01 03:37:01
TRACK 07 AUDIO
TITLE "Приди"
INDEX 01 06:26:74
TRACK 08 AUDIO
TITLE "Мой милый Иванушка"
INDEX 01 10:00:60
TRACK 09 AUDIO
TITLE "Не забывай"
INDEX 01 13:29:70
------------------------------------------------------------------------------
София Ротару (пластинка II) - София Ротару и 'Червона Рута'.cue
------------------------------------------------------------------------------
REM GENRE Cоветская эстрада, pop
REM DATE 1980
REM COMMENT Meлодия\С60-16053-6\Vinylrip by Ollleg
PERFORMER "София Ротару"
TITLE "София Ротару и 'Червона Рута'"
FILE "SOFIA ROTARU side 1.flac" WAVE
TRACK 01 AUDIO
TITLE "Родной край"
INDEX 01 00:00:00
TRACK 02 AUDIO
TITLE "Ожидание"
INDEX 01 03:43:15
TRACK 03 AUDIO
TITLE "Дети всей земли"
INDEX 01 08:08:38
TRACK 04 AUDIO
TITLE "Счастливый вечер"
INDEX 01 11:14:41
TRACK 05 AUDIO
TITLE "Я слышу голос твой"
INDEX 01 15:16:30
FILE "SOFIA ROTARU side 2.flac" WAVE
TRACK 06 AUDIO
TITLE "Любовь"
INDEX 01 00:00:00
TRACK 07 AUDIO
TITLE "Осенняя песня"
INDEX 01 03:29:68
TRACK 08 AUDIO
TITLE "Мир утверждает любовь"
INDEX 01 07:37:13
TRACK 09 AUDIO
TITLE "Останься со мной"
INDEX 01 11:39:23

<
  • 1518 комментариев
  • 697 публикаций
  • ICQ:
27 августа 2013 12:24

Ollleg

  • Группа: Vizitor
  • Регистрация: 14.07.2012
  • Статус: Пользователь offline
 
добавил F-BIT 24-96

<
  • 3 комментария
  • 0 публикаций
  • ICQ:
2 сентября 2013 18:55

aleksdat

  • Группа: Ветеран проекта
  • Регистрация: 12.08.2013
  • Статус: Пользователь offline
 
Спасибушки:)

Информация
Посетители, находящиеся в группе Гости, не могут оставлять комментарии к данной публикации.