» » Песни советских композиторов (1977)

 
 
 

Песни советских композиторов (1977)

Автор: Ollleg от 23-08-2013, 18:47, посмотрело: 4658

12
Vinyl-Rip by Ollleg



Песни советских композиторов (1977)



Название:
Песни советских композиторов

Исполнитель:
Разные исполнители

Жанр: Cоветская эстрада, pop
Год выпуска: 1977
Количество композиций: 10
Фирма: Meлодия
Номер по каталогу: 33 С 60-09867-8
Формат: mp3 + lossless
Качество: cbr 320 kbps + flac 24 bit/96 kHz + flac 16 bit/44 kHz
Размер файла: 97 mb + 256 mb + 861 mb

Предпрослушивание: lp,mp3-320


Список композиций:
Сторона 1 :
01 - ЗА ПОЛЧАСА ДО ВЕСНЫ (3.57)
(О.Фельцман-Н.Олев)
АНСАМБЛЬ ПЕСНЯРЫ

02 - ЖЁЛТЫЙ ЛИСТ (3.11)
(Р.Паулс-Я.Петерс, русский текст И.Шаферана)
ГАЛИНА БОВИНА и ВЛАДИСЛАВ ЛЫНКОВСКИЙ

03 - КАК МОЛОДЫ МЫ БЫЛИ (5.17)
(А.Пахмутова-Н.Добронравов)
АЛЕКСАНДР ГРАДСКИЙ

04 - ВСЁ МОГУТ КОРОЛИ (3.00)
(Б.Рычков-Л.Дербенёв)
АЛЛА ПУГАЧЁВА

05 - СОЛОВЬИНАЯ РОЩА (3.48)
(Д.Тухманов-А.Поперечный)
АНСАМБЛЬ КРАСНЫЕ МАКИ

Сторона 2:
06 - ВСЕГДА И СНОВА (4.35)
(М.Фралкин-Е.Долматовский)
АНСАМБЛЬ ПОЮЩИЕ СЕРДЦА

07 - МОЛЬБА (4.20)
(А.Журбин-И.Резник)
ИРИНА ПОНАРОВСКАЯ

08 - МНЕ ТЕПЕРЬ ВСЁ РАВНО (3.20)
(А.Шульга-Л.Дербенёв)
АНСАМБЛЬ ЧАРИВНИ ГИТАРЫ

09 - ТВОИ СЛЕДЫ (3.52)
(А.Бабаджанян-Е.Евтушенко)
СОФИЯ РОТАРУ

10 - ВСЁ, ЧТО В ЖИЗНИ ЕСТЬ У МЕНЯ (4.20)
(В.Добрынин-Л.Дербенёв)
АНСАМБЛЬ САМОЦВЕТЫ







СUE для релиза под спойлером
*любезно предоставил Главный редактор XELENA :

 CUE


Скачать VA - Ритмы Мелодии (С 60-09867-8), Vinyl-rip :
Пароль к архиву: ollleg001

Внимание! У вас нет прав для просмотра скрытого текста.


Релиз понравился ? Скажи автору спасибо !

Категория: Vinyl Rip, СОВЕТСКАЯ ЭСТРАДА

Уважаемый посетитель, Вы зашли на сайт как незарегистрированный пользователь.
Мы рекомендуем Вам зарегистрироваться либо войти на сайт под своим именем.
<
  • 82 комментария
  • 6 публикаций
  • ICQ:
23 августа 2013 20:38

Valera123

  • Группа: Релизёр
  • Регистрация: 7.05.2013
  • Статус: Пользователь offline
 
1. Спасибо за пластинку!

2. Дата будет такой

=== 1977

Внимание! У вас нет прав для просмотра скрытого текста.

<
  • 1825 комментариев
  • 818 публикаций
  • ICQ:
23 августа 2013 22:14

Ollleg

  • Группа: Vizitor
  • Регистрация: 14.07.2012
  • Статус: Пользователь offline
 
Цитата: Valera123
2. Дата будет такой

=== 1977

Валера, спасибо! Название и год подправил. smile-08 smile-33

<
  • 542 комментария
  • 105 публикаций
  • ICQ:
23 августа 2013 22:27

xelena

  • Группа: Главный Редактор
  • Регистрация: 19.07.2012
  • Статус: Пользователь offline
 
Spasibo chto blagodaria vam 'starye pesni o glavnom' ostaiut'sia vechno molodymi!
-------------------------------------------------------------------------
VA - ПЕСНИ СОВЕТСКИХ КОМПОЗИТОРОВ (С 60-09867-8).cue
-------------------------------------------------------------------------
REM GENRE Cоветская эстрада, pop
REM DATE 1977
PERFORMER "VA"
TITLE ПЕСНИ СОВЕТСКИХ КОМПОЗИТОРОВ
FILE "VA-MELODIA side A.flac" WAVE
TRACK 01 AUDIO
TITLE "ЗА ПОЛЧАСА ДО ВЕСНЫ"
PERFORMER "АНСАМБЛЬ ПЕСНЯРЫ"
INDEX 01 00:00:00
TRACK 02 AUDIO
TITLE "ЖЁЛТЫЙ ЛИСТ"
PERFORMER "ГАЛИНА БОВИНА и ВЛАДИСЛАВ ЛЫНКОВСКИЙ"
INDEX 01 03:50:22
TRACK 03 AUDIO
TITLE "МНЕ ТЕПЕРЬ ВСЁ РАВНО"
PERFORMER "АНСАМБЛЬ ЧАРИВНИ ГИТАРЫ"
INDEX 01 07:03:02
TRACK 04 AUDIO
TITLE "ВСЁ МОГУТ КОРОЛИ"
PERFORMER "АЛЛА ПУГАЧЁВА"
INDEX 01 12:22:07
TRACK 05 AUDIO
TITLE "СОЛОВЬИНАЯ РОЩА"
PERFORMER "АНСАМБЛЬ КРАСНЫЕ МАКИ"
INDEX 01 15:21:16
FILE "VA-MELODIA side B.flac" WAVE
TRACK 06 AUDIO
TITLE "ВСЕГДА И СНОВА"
PERFORMER "АНСАМБЛЬ ПОЮЩИЕ СЕРДЦА"
INDEX 01 00:00:00
TRACK 07 AUDIO
TITLE "МОЛЬБА"
PERFORMER "ИРИНА ПОНАРОВСКАЯ"
INDEX 01 04:27:22
TRACK 03 AUDIO
TITLE "МНЕ ТЕПЕРЬ ВСЁ РАВНО"
PERFORMER "АНСАМБЛЬ ЧАРИВНИ ГИТАРЫ"
INDEX 01 08:47:09
TRACK 09 AUDIO
TITLE "ТВОИ СЛЕДЫ"
PERFORMER "СОФИЯ РОТАРУ"
INDEX 01 12:13:38
TRACK 10 AUDIO
TITLE "ВСЁ, ЧТО В ЖИЗНИ ЕСТЬ У МЕНЯ"
PERFORMER "АНСАМБЛЬ САМОЦВЕТЫ"
INDEX 01 16:07:00

<
  • 82 комментария
  • 6 публикаций
  • ICQ:
24 августа 2013 05:22

Valera123

  • Группа: Релизёр
  • Регистрация: 7.05.2013
  • Статус: Пользователь offline
 
1. И само название пластинки откуда взялось

--- Ритмы Мелодии

2. Я думаю, что лучше назвать так:

--- Песни советских композиторов (С 60-09867-8),

как на других конвертах пластинок такого выпуска

<
  • 1825 комментариев
  • 818 публикаций
  • ICQ:
24 августа 2013 10:26

Ollleg

  • Группа: Vizitor
  • Регистрация: 14.07.2012
  • Статус: Пользователь offline
 
Цитата: Valera123
--- Песни советских композиторов (С 60-09867-8),

как на других конвертах пластинок такого выпуска

Валера, других конвертов этого издания я не видел, а на моём никакого названия нет нигде, поэтому и назвал именно так smile-06

Усё подправил.

Внимание! У вас нет прав для просмотра скрытого текста.


Как эту пластинку "обозвать"?
СЪБОТА ВЕЧЕР - СОФИЯ 12, Vinyl-rip
так?
или без "София 12" ?

<
  • 82 комментария
  • 6 публикаций
  • ICQ:
24 августа 2013 10:28

Valera123

  • Группа: Релизёр
  • Регистрация: 7.05.2013
  • Статус: Пользователь offline
 
СЪБОТА ВЕЧЕР (BTA 1740), Vinyl-rip by OLLEG


Saturday Night [BALKANTON BTA-1740] - 1977


01. A Friend Of Mine - Gilbert O'Sullivan
02. Happy Birthday Sweet Sixteen - Gulliver
03. Darling - Simon Butterfly
04. Seasons In The Sun - Terry Jacks
05. Saturday Night - Bay City Rollers (B. Martin, P. Coniter)
06. One And One Is One - Medicine Head
07. Standing On The Inside - Neil Sedaka (Neil Sedaka)
08. Ring, Ring - Bjorn-Benny-Anna-Frida (B.Andersson, S.Andersson, B.Vivaens, N.Sedaka)
09. This World Is A Mess - Donna Hightower (Maurice Albert)
10. Wouldn't I Be Someone - The Bee Gees (B. R. M. Gibb)
11. My Friend Stan - Slade (Holder-Lea)
12. Let The Love Grow (In Your Heart) - Daliah Lavi (Joh Kongos, Demitriou)

<
  • 1825 комментариев
  • 818 публикаций
  • ICQ:
24 августа 2013 10:59

Ollleg

  • Группа: Vizitor
  • Регистрация: 14.07.2012
  • Статус: Пользователь offline
 
ага, ещё трек лист такой дам, пусть два будет:
(прикольно написано, мне нравиться smile-03 )

1 страна
01 - МОЙ ПРИЯТЕЛ - ЖИЛБЕРТ О'СЪЛИВАН
02 - ЩАСТЛИВ 16-и РОЖДЕН ДЕН - ГЪЛИВЕР
Нил Седака
03 - МИЛА - СИМОН БЪТЕРФЛАЙ
Саймън, Барнес
04 - ГОДИШНИ ВРЕМЕНА - ТЕРИ ДЖАКС
05 - СЪБОТА ВЕЧЕР - "БЕЙ СИТИ РОЛЪРС"
Мартин, Конитър
06 - ЕДНО И ЕДНО Е ЕДНО - "МЕДИСИН ХЕД"
Дж.Фидлер

2 страна
07 - ЗАВРЪЩАНЕ - НИЛ СЕДАКА
Нил Седака
08 - ЗВЪНИ, ЗВЪНИ... - БЬОРН-БЕНИ-АНА-ФРИДА
Б.Андерсън, С.Андерсън, Б.Вивенс, Н.Седака
09 - ТОЗИ ДНЕШЕН СВЯТ Е ЕДНА ГОЛЯМА БЪРКОТИЯ - ДОНА ХАЙТАУЪР
10 - АКО МОЖЕХ ДА БЪДА - "БИ ДЖИЙЗ"
Б.Гиб
11 - МОЯТ ПРИЯТЕЛ СТЕН - "СЛЕЙД"
Холдър, Ли
12 - В ТВОЕТО СЪРЦЕ - ДАЛИА ЛАВИ
Дж.Конгос, Димитриу

Внимание! У вас нет прав для просмотра скрытого текста.


SOPHIA ROTARU AND CHERVONA RUTA ENSEMBLE - WHERE HAS LOVE GONE(1981), Vinyl-rip 2LP

Ну тут-то всё верно?

<
  • 82 комментария
  • 6 публикаций
  • ICQ:
24 августа 2013 11:05

Valera123

  • Группа: Релизёр
  • Регистрация: 7.05.2013
  • Статус: Пользователь offline
 
1. Я думаю, что нужно давать на русском языке названия, а уже потом на зарубежном. Выпустила то пластинку фирма "Мелодия".

2. Вот тут есть выкладки этой пластинки

http://skameikin.blogspot.ru/2009/06/1981_30.html

http://rutracker.org/forum/viewtopic.php?t=3219879

<
  • 0 комментариев
  • 0 публикаций
  • ICQ:
12 мая 2015 15:55

v-1962

  • Группа: Гости
  • Регистрация: --
  • Статус:
 
исправленный куй:

REM GENRE Cоветская эстрада, pop
REM DATE 1977
PERFORMER "Various Artists"
TITLE "Песни советских композиторов"
FILE "VA-MELODIA side A.flac" WAVE
TRACK 01 AUDIO
TITLE "За полчаса до весны"
PERFORMER "Песняры"
INDEX 01 00:00:00
TRACK 02 AUDIO
TITLE "Жёлтый лист"
PERFORMER "Галина Бовина и Владислав Лынковский"
INDEX 01 03:50:22
TRACK 03 AUDIO
TITLE "Как молоды мы были"
PERFORMER "Александр Градский"
INDEX 01 07:03:02
TRACK 04 AUDIO
TITLE "Всё могут короли"
PERFORMER "Алла Пугачёва"
INDEX 01 12:22:07
TRACK 05 AUDIO
TITLE "Соловьиная роща"
PERFORMER "Красные маки"
INDEX 01 15:21:16
FILE "VA-MELODIA side B.flac" WAVE
TRACK 06 AUDIO
TITLE "Всегда и снова"
PERFORMER "Поющие сердца"
INDEX 01 00:00:00
TRACK 07 AUDIO
TITLE "Мольба"
PERFORMER "Ирина Понаровская"
INDEX 01 04:27:22
TRACK 08 AUDIO
TITLE "Мне теперь всё равно"
PERFORMER "Чаривны гитары"
INDEX 01 08:47:09
TRACK 09 AUDIO
TITLE "Твои следы"
PERFORMER "София Ротару"
INDEX 01 12:13:38
TRACK 10 AUDIO
TITLE "Всё, что есть у меня"
PERFORMER "Самоцветы"
INDEX 01 16:07:00

<
  • 10 комментариев
  • 0 публикаций
  • ICQ:
15 августа 2017 20:09

Хиппи

  • Группа: Меломан
  • Регистрация: 4.08.2016
  • Статус: Пользователь offline
 
Ссылки, к сожалению, мертвы. Если есть возможность перезалейте, пожалуйста, на Облако.Майл или Яндекс вариант 24/96.
Спасибо!

<
  • 1825 комментариев
  • 818 публикаций
  • ICQ:
21 августа 2017 14:10

Ollleg

  • Группа: Vizitor
  • Регистрация: 14.07.2012
  • Статус: Пользователь offline
 
Как нибудь осенью переоцифрую, старая оц. не сохранена, перезалить не могу.

П.С.
На меге ссылка жива, 24-96 перезалил на Яшу.
smile-33

<
  • 10 комментариев
  • 0 публикаций
  • ICQ:
21 августа 2017 22:32

Хиппи

  • Группа: Меломан
  • Регистрация: 4.08.2016
  • Статус: Пользователь offline
 
Цитата: Ollleg
Как нибудь осенью переоцифрую, старая оц. не сохранена, перезалить не могу.

П.С.
На меге ссылка жива, 24-96 перезалил на Яшу.
smile-33


Спасибо большое! Скачал!

Информация
Посетители, находящиеся в группе Гости, не могут оставлять комментарии к данной публикации.