» » Алексей Кузнецов (гитара) - Голубой коралл (1981)

 
 
 

Алексей Кузнецов (гитара) - Голубой коралл (1981)

Автор: Ollleg от 18-08-2013, 11:55, посмотрело: 3243

3
Vinyl-Rip by Ollleg



Vinylrip by Ollleg

Алексей Кузнецов (гитара) - Голубой коралл (1981)



Название:
Голубой коралл

Исполнитель:
Алексей Кузнецов

Жанр: Orchestra, Jazz, Instrumental
Год выпуска: 1981
Количество композиций: 8
Фирма: Meлодия
Номер по каталогу: C60-15527-8
Формат: mp3 + lossless
Качество: cbr 320 kbps + flac 24 bit/96 kHz
Размер файла: 106 mb + 853 mb

Предпрослушивание: lp,mp3-320


Список композиций:
1 сторона:
01 Со мной все в порядке (К. Портер) — 2.50
02 Бейсин-стрит блюз (С. Уильяме) — 1.39
03 Ты — это все (Дж. Керн) — 5.55
04 Вспоминая о тебе (X. Марвелл) — 3.54
05 Голубой коралл (А. Кузнецов) — 7.24
Аранжировки А. Кузнецова
2 сторона:
06 Мягкий дождь (Л. Бонфа, аранжировка А. Кузнецова) — 7.33
07 Импровизация на тему Т. Хренникова из к/ф «Верные друзья» (А. Кузнецов) — 7.19
08 Импровизация на тему «Колыбельной» из оперы «Порги и Бесс» Дж. Гершвина (А. Кузнецов) — 6.11

А. Кузнецов, гитара
И. Назарук, фортепиано (1—5), полимуг(6—8)
А. Исплатовский, контрабас, бас-гитара (6—8)
А. Чернышев, ударные (3, 6—8)
А. Гореткин, конги (5—8)







СUE для релиза под спойлером
*любезно предоставил Главный редактор XELENA :

 CUE


Скачать Алексей Кузнецов (гитара) - Голубой коралл (1981) :
Внимание! У вас нет прав для просмотра скрытого текста.


Скачать Алексей Кузнецов (гитара) - Голубой коралл (1981)
с DEPOSITFILES:

Пароль к архиву - ollleg001
Внимание! У вас нет прав для просмотра скрытого текста.


Релиз понравился ? Скажи автору спасибо !

Категория: Vinyl Rip, Jazz, Blues, Soul

Уважаемый посетитель, Вы зашли на сайт как незарегистрированный пользователь.
Мы рекомендуем Вам зарегистрироваться либо войти на сайт под своим именем.
<
  • 509 комментариев
  • 104 публикации
  • ICQ:
18 августа 2013 17:20

xelena

  • Группа: Главный Редактор
  • Регистрация: 19.07.2012
  • Статус: Пользователь offline
 
Super! Blestiashe! Spasibo!
--------------------------------------
Алексей Кузнецов - Голубой коралл (1981).cue
--------------------------------------
REM GENRE Orchestra, Jazz, Instrumental
REM DATE 1981
REM COMMENT Meлодия\C60-15527-8\Vinylrip by Ollleg
PERFORMER "Алексей Кузнецов"
TITLE "Голубой Коралл"
FILE "Алексей Кузнецов сторона А.flac" WAVE
TRACK 01 AUDIO
TITLE "Со мной все в порядке (К. Портер)"
INDEX 01 00:00:00
TRACK 02 AUDIO
TITLE "Бейсин-стрит блюз (С. Уильяме)"
INDEX 01 02:49:34
TRACK 03 AUDIO
TITLE "Ты — это все (Дж. Керн)"
INDEX 01 04:29:37
TRACK 04 AUDIO
TITLE "Вспоминая о тебе (X. Марвелл)"
INDEX 01 10:19:66
TRACK 05 AUDIO
TITLE "Голубой коралл (А. Кузнецов)"
INDEX 01 14:11:35
FILE "Алексей Кузнецов сторона B.flac" WAVE
TRACK 06 AUDIO
TITLE "Мягкий дождь (Л. Бонфа, аранжировка А. Кузнецова)"
INDEX 01 00:00:00
TRACK 07 AUDIO
TITLE "Импровизация на тему Т. Хренникова из к/ф «Верные друзья» (А. Кузнецов)"
INDEX 01 07:22:52
TRACK 08 AUDIO
TITLE "Импровизация на тему «Колыбельной» из оперы «Порги и Бесс» Дж. Гершвина (А. Кузнецов)"
INDEX 01 14:30:56

<
  • 1518 комментариев
  • 698 публикаций
  • ICQ:
18 августа 2013 17:37

Ollleg

  • Группа: Vizitor
  • Регистрация: 14.07.2012
  • Статус: Пользователь offline
 
Уважаемый Главн. редактор, спасибо за такую оперативность !!!
smile-29

<
  • 509 комментариев
  • 104 публикации
  • ICQ:
18 августа 2013 22:56

xelena

  • Группа: Главный Редактор
  • Регистрация: 19.07.2012
  • Статус: Пользователь offline
 
Staraius'! vsex blag!

Информация
Посетители, находящиеся в группе Гости, не могут оставлять комментарии к данной публикации.