» » Алексей Кузнецов - Концерт в Олимпийской деревне 2(1988)

 
 
 

Алексей Кузнецов - Концерт в Олимпийской деревне 2(1988)

Автор: Ollleg от 18-08-2013, 11:21, посмотрело: 2793

2
Vinyl-Rip by Ollleg



Алексей Кузнецов - Концерт в Олимпийской деревне 2(1988)



Название:
Концерт в Олимпийской деревне 2

Исполнитель:
Алексей Кузнецов

Жанр: Orchestra, Jazz, Instrumental
Год выпуска: 1988 (запись 1987 )
Количество композиций: 7
Фирма: Meлодия
Номер по каталогу: A60 00363 008
Формат: mp3 + lossless
Качество: cbr 320 kbps + flac 24 bit/96 kHz
Размер файла: 104 mb + 844 mb

Предпрослушивание: lp,mp3-320


Список композиций:
Side one:
1. Softly, as in the morning sunrise (Sigmund Romberg)
2. Stella by starlight (Victor Yong)
3. The child is born (Thad Jones)
4. ‘Round about midnight (Thelonius Monk)
Side two:
5. Careful (Jim Hall)
6. Eiderdown (Steve Swallow)
7. No greater love (Isham Jones)

Обработка А. Кузнецова
Алексей Кузнецов гитара(1-7)
Александр Ростоцкий бас-гитара(1,2,5-7)
Сергей Чернышов вибрафон(3,5-7)
Daniel Martin (USA) ударные(1,2,6,7)
Звукорежиссер Л. Должников.







СUE для релиза под спойлером
*любезно предоставил Главный редактор XELENA :

 CUE


Скачать Алексей Кузнецов - Концерт в Олимпийской деревне 2(1987) :
Внимание! У вас нет прав для просмотра скрытого текста.


Скачать Алексей Кузнецов - Концерт в Олимпийской деревне 2(1987)
с DEPOSITFILES:

Пароль к архиву - ollleg001
Внимание! У вас нет прав для просмотра скрытого текста.

Релиз понравился ? Скажи автору спасибо !

Категория: Vinyl Rip, Instrumental,Orchestra, Jazz, Blues, Soul

Уважаемый посетитель, Вы зашли на сайт как незарегистрированный пользователь.
Мы рекомендуем Вам зарегистрироваться либо войти на сайт под своим именем.
<
  • 542 комментария
  • 105 публикаций
  • ICQ:
18 августа 2013 16:49

xelena

  • Группа: Главный Редактор
  • Регистрация: 19.07.2012
  • Статус: Пользователь offline
 
B L E S K !
Bol'shushchee spasibo!!!
-----------------------------------------
Алексей Кузнецов - Концерт в Олимпийской деревне 2 (1988).cue
-----------------------------------------
REM GENRE Orchestra, Jazz, Instrumental
REM DATE 1988
REM COMMENT vinilrip by ollleg\МЕЛОДИЯ CCCP\A60 00363 008
PERFORMER "Алексей Кузнецов"
TITLE "Концерт в Олимпийской деревне #2"
FILE "Алексей Кузнецов сторона А.flac" WAVE
TRACK 01 AUDIO
TITLE "Softly, as in the morning sunrise (Sigmund Romberg)"
INDEX 01 00:00:00
TRACK 02 AUDIO
TITLE "Stella by starlight (Victor Yong)"
INDEX 01 07:26:00
TRACK 03 AUDIO
TITLE "The child is born (Thad Jones)"
INDEX 01 12:18:08
TRACK 04 AUDIO
TITLE "‘Round about midnight (Thelonius Monk)"
INDEX 01 18:04:08
FILE "Алексей Кузнецов сторона В.flac" WAVE
TRACK 05 AUDIO
TITLE "Careful (Jim Hall)"
INDEX 01 00:00:00
TRACK 06 AUDIO
TITLE "Eiderdown (Steve Swallow)"
INDEX 01 05:36:37
TRACK 07 AUDIO
TITLE "No greater love (Isham Jones)"
INDEX 01 11:40:16

<
  • 1827 комментариев
  • 818 публикаций
  • ICQ:
18 августа 2013 17:38

Ollleg

  • Группа: Vizitor
  • Регистрация: 14.07.2012
  • Статус: Пользователь offline
 
Спасибо за CUE !

Информация
Посетители, находящиеся в группе Гости, не могут оставлять комментарии к данной публикации.