» » Оркестр Олега Лундстрема – Серенада Солнечной Долины (1977)

 
 
 

Оркестр Олега Лундстрема – Серенада Солнечной Долины (1977)

Автор: Ollleg от 17-08-2013, 14:35, посмотрело: 4524

2
Vinyl-Rip by Ollleg



Оркестр Олега Лундстрема – Серенада Солнечной Долины (1977)



Название:
Серенада Солнечной Долины

Исполнитель:
Оркестр Олега Лундстрема

Жанр: Orchestra, Jazz
Год выпуска: 1977
Количество композиций: 11
Фирма: Meлодия
Номер по каталогу: 33С 60-07077-78
Формат: mp3 + lossless
Качество: cbr 320 kbps + flac 24 bit/96 kHz
Размер файла: 85 mb + 715 mb

Предпрослушивание: lp,mp3-320


Список композиций:
сторона 1
1 -------- В Хорошем Настроении

Alto Saxophone – В. Тергалинский* Tenor Saxophone – И. Лундстрем* Trumpet – К. Носов* Written-By – Разаф*, Гарланд*


2 ------- Лунная Серенада

Trumpet – Я. Бурачевский* Written-By – Г. Миллер*


3 ------ Дорога На Чаттанугу

Written-By – Уоррен*, Гордон*


4 ------ Я Знаю, Почему

Trumpet – Я. Бурачевский* Written-By – Уоррен*


5 ------ Мы Снова Здесь

Tenor Saxophone – С. Григорьев* Trumpet – К. Носов* Written-By – Дж. Грэй*


6 ------ Коричневый Кувшинчик

Arranged By – Б. Финиген* Baritone Saxophone – Ю. Бобринский* Trumpet – К. Носов*

сторона 2:

1 ------ Это Что-То Зыбкое

Alto Saxophone – Г. Гольштейн* Piano – В. Садыхов* Tenor Saxophone – С. Григорьев* Trombone – В. Бударин* Written-By – Дж. Макгрегор*, Г. Вильямс*


2 ------ Утренняя Серенада

Tenor Saxophone – С. Григорьев* Written-By – Ф. Карле*


3 ------ В Кругу Друзей

Trumpet – И. Широков* Written-By – Unknown Artist


4 ------ Нитка Жемчуга

Alto Saxophone – Г. Гольштейн* Written-By – Уоррен*


5 ------ Я Очарован

Trombone – В. Бударин* Written By – С. Липман







СUE для релиза под спойлером
*любезно предоставил Главный редактор XELENA :

 CUE


Скачать Оркестр Олега Лундстрема – Серенада Солнечной Долины (1977) :
Внимание! У вас нет прав для просмотра скрытого текста.


Скачать Оркестр Олега Лундстрема – Серенада Солнечной Долины (1977)
с DEPOSITFILES:

Пароль к архиву - ollleg001
Внимание! У вас нет прав для просмотра скрытого текста.

Релиз понравился ? Скажи автору спасибо !

Категория: Vinyl Rip, Instrumental,Orchestra, Jazz, Blues, Soul

Уважаемый посетитель, Вы зашли на сайт как незарегистрированный пользователь.
Мы рекомендуем Вам зарегистрироваться либо войти на сайт под своим именем.
<
  • 555 комментариев
  • 0 публикаций
  • ICQ:
18 августа 2013 07:12

xelena

  • Группа: ГЛАВНЫЙ РЕДАКТОР
  • Регистрация: 19.07.2012
  • Статус: Пользователь offline
 
AUUUUU, OGRMNOE SPASIBO!
--------------------------------------------------------------------------------
----
Оркестр Олега Лундстрема – Серенада Солнечной Долины (1977).cue
--------------------------------------------------------------------------------
----
REM GENRE Jazz
REM DATE 1977
REM COMMENT Meлодия\33С 60-07077-78\vinilrip by ollleg
PERFORMER "Оркестр Олега Лундстрема"
TITLE "Серенада Солнечной Долины"
FILE "SERENADA -O.LUNDSTREM -Side A.flac" WAVE
TRACK 01 AUDIO
TITLE "В Хорошем Настроении"
INDEX 01 00:00:00
TRACK 02 AUDIO
TITLE "Лунная Серенада"
INDEX 01 03:26:14
TRACK 03 AUDIO
TITLE "Дорога На Чаттанугу"
INDEX 01 06:05:73
TRACK 04 AUDIO
TITLE "Я Знаю, Почему"
INDEX 01 08:45:68
TRACK 05 AUDIO
TITLE "Мы Снова Здесь"
INDEX 01 10:42:19
TRACK 06 AUDIO
TITLE "Коричневый Кувшинчик"
INDEX 01 14:17:11
FILE "SERENADA -O.LUNDSTREM -Side B.flac" WAVE
TRACK 07 AUDIO
TITLE "Это Что-То Зыбкое"
INDEX 01 00:00:00
TRACK 08 AUDIO
TITLE "Утренняя Серенада"
INDEX 01 03:37:40
TRACK 09 AUDIO
TITLE "В Кругу Друзей"
INDEX 01 06:58:00
TRACK 10 AUDIO
TITLE "Нитка Жемчуга"
INDEX 01 11:05:37
TRACK 11 AUDIO
TITLE "Я Очарован"
INDEX 01 14:10:56

<
  • 2101 комментарий
  • 803 публикации
  • ICQ:
18 августа 2013 10:08

Ollleg

  • Группа: Vizitor
  • Регистрация: 14.07.2012
  • Статус: Пользователь offline
 
Cпасибо за CUE !!!

Информация
Посетители, находящиеся в группе Гости, не могут оставлять комментарии к данной публикации.