» » Alexandra - Goldene Serie 1975

 
 
 

Alexandra - Goldene Serie 1975

Автор: gitarist от 15-08-2013, 09:49, посмотрело: 1356

7
Alexandra - Goldene Serie 1975


Информация о пластинке:
Название: Goldene Serie
Исполнитель: Alexandra
Жанр: Retro
Год выпуска: 1975
Количество композиций: 16
Количество пластинок: 1
Фирма: Philips
Номер по каталогу: 65 851 8

Информация о файле с оцифровкой:
Формат: mp3 + flac
Качество: cbr 320 kbps + lossless 16/48 kHz
Размер файла: 119,0 + 306,3 Мб

Предпрослушка: mp3 cbr 320 kbps



Список композиций:
Seite 1
01 Zigeunerjunge
02 Erstes Morgenrot
03 Mein Freund, Der Baum
04 Auf Dem Wege Nach Odessa
05 Am Grossen Strom
06 Hereinspaziert
07 Illusionen
08 Tanz, Alter Tanzbar
Seite 2
09 Sehnsucht (Das Lied Der Taiga)
10 Walzer Des Sommers (Valse D'Ete)
11 Ja Lublju Tebja (Ich Liebe Dich)
12 Der Traum Vom Fliegen
13 Schwarze Balalaika
14 Der Grosse Clown
15 Zwei Gitarren (Golden Earrings)
16 Im Sechsten Stock







Скачать mp3 (119 Мб):
Пароль к архиву: iord
Внимание! У вас нет прав для просмотра скрытого текста.


Скачать lossless 16-48 (306,3 Мб):
Пароль к архиву: iord
Внимание! У вас нет прав для просмотра скрытого текста.

Релиз понравился ? Скажи автору спасибо !

Категория: Vinyl Rip, Retro 40x-60x

Уважаемый посетитель, Вы зашли на сайт как незарегистрированный пользователь.
Мы рекомендуем Вам зарегистрироваться либо войти на сайт под своим именем.
<
  • 1527 комментариев
  • 699 публикаций
  • ICQ:
15 августа 2013 10:18

Ollleg

  • Группа: Vizitor
  • Регистрация: 14.07.2012
  • Статус: Пользователь Онлайн
 
Андрей,спасибо!
Мне ещё по "синьке" эта исполнительница
запомнилась, прекрасный голос! smile-29
п.с.
Добавил в твои новости категории :VINYL Rip, Mp3, Lossles
На сайте много не только винила, но и сд,
что бы народ не путался, специально в категориях есть раздел винила
и сд, каждый может просматривать именно то, зачем пришёл на сайт smile-33

<
  • 33 комментария
  • 31 публикация
  • ICQ:
15 августа 2013 11:19

gitarist

  • Группа: Релизёр
  • Регистрация: 14.08.2013
  • Статус: Пользователь offline
 
Ок! Наверно просто не заметил эту категорию. Буду иметь в виду.

--------------------

<
  • 1527 комментариев
  • 699 публикаций
  • ICQ:
15 августа 2013 11:21

Ollleg

  • Группа: Vizitor
  • Регистрация: 14.07.2012
  • Статус: Пользователь Онлайн
 
Цитата: gitarist
Ок! Наверно просто не заметил эту категорию. Буду иметь в виду.

Андрей, эти категории ближе к низу. На шести твоих релизах я подправил.
Ещё раз спасибо за отличные пластинки!

<
  • 509 комментариев
  • 104 публикации
  • ICQ:
16 августа 2013 09:35

xelena

  • Группа: Главный Редактор
  • Регистрация: 19.07.2012
  • Статус: Пользователь offline
 
prevosxodno! spasibo!

<
  • 509 комментариев
  • 104 публикации
  • ICQ:
26 августа 2013 08:47

xelena

  • Группа: Главный Редактор
  • Регистрация: 19.07.2012
  • Статус: Пользователь offline
 
Alexandra - 1975 - Goldene Serie (LP vinyl) (16_48) (Philips - 65 851 8).cue
--------------------------------------------------------------------------------
--------
REM GENRE Retro
REM DATE 1975
REM COMMENT Оцифровка gitarist
PERFORMER "Alexandra"
TITLE "Goldene Serie"
FILE "01 - Seite 1.flac" WAVE
TRACK 01 AUDIO
TITLE "Zigeunerjunge"
INDEX 01 00:00:00
TRACK 02 AUDIO
TITLE "Erstes Morgenrot"
INDEX 01 03:13:01
TRACK 03 AUDIO
TITLE "Mein Freund, Der Baum"
INDEX 01 06:39:00
TRACK 04 AUDIO
TITLE "Auf Dem Wege Nach Odessa"
INDEX 01 10:25:01
TRACK 05 AUDIO
TITLE "Am Grossen Strom"
INDEX 01 12:46:74
TRACK 06 AUDIO
TITLE "Hereinspaziert"
INDEX 01 16:06:38
TRACK 07 AUDIO
TITLE "Illusionen"
INDEX 01 19:06:00
TRACK 08 AUDIO
TITLE "Tanz, Alter Tanzbar"
INDEX 01 22:09:00
FILE "02 - Seite 2.flac" WAVE
TRACK 09 AUDIO
TITLE "Sehnsucht (Das Lied Der Taiga)"
INDEX 01 00:00:00
TRACK 10 AUDIO
TITLE "Walzer Des Sommers (Valse D'Ete)"
INDEX 01 02:56:36
TRACK 11 AUDIO
TITLE "Ja Lublju Tebja (Ich Liebe Dich)"
INDEX 01 06:27:00
TRACK 12 AUDIO
TITLE "Der Traum Vom Fliegen"
INDEX 01 08:59:00
TRACK 13 AUDIO
TITLE "Schwarze Balalaika"
INDEX 01 12:54:37
TRACK 14 AUDIO
TITLE "Der Grosse Clown"
INDEX 01 16:07:39
TRACK 15 AUDIO
TITLE "Zwei Gitarren (Golden Earrings)"
INDEX 01 18:44:38
TRACK 16 AUDIO
TITLE "Im Sechsten Stock"
INDEX 01 22:24:37

<
  • 11 комментариев
  • 0 публикаций
  • ICQ:
14 октября 2015 02:50

Bosfor

  • Группа: Меломан
  • Регистрация: 13.10.2015
  • Статус: Пользователь offline
 
На Л.Мондрус похожа (закардонного периода) но Ларисочка - несравненней. Впрочем спасибо! Прихватил в коллекцию. Люблю немцев 60х-70х.Особенно девушек!

<
  • 1527 комментариев
  • 699 публикаций
  • ICQ:
1 ноября 2015 12:27

Ollleg

  • Группа: Vizitor
  • Регистрация: 14.07.2012
  • Статус: Пользователь Онлайн
 
Цитата: Bosfor
На Л.Мондрус похожа (закардонного периода) но Ларисочка - несравненней. Впрочем спасибо! Прихватил в коллекцию. Люблю немцев 60х-70х.Особенно девушек!

Михаил, посетите сайт Андрея (gitarist), у него много интересных оцифровок, у нас совсем малая часть его работ выставлена...

Внимание! У вас нет прав для просмотра скрытого текста.

Информация
Посетители, находящиеся в группе Гости, не могут оставлять комментарии к данной публикации.