» » Van Halen - Audiophile Collection

 
 
 

Van Halen - Audiophile Collection

Автор: burgui от 3-11-2020, 19:26, посмотрело: 208

3
*Hi-Res *

Van Halen - Audiophile Collection


Альбом:
Audiophile Collection
Имя исполнителя/ группы:
Van Halen
Музыкальный жанр/ стиль: Rock
Дата записи/ выхода: 1978-1991
Всего треков: 28
Файл раздачи: flac 24/96
Вес архива: 1,9gb , 702mb


Релиз залит на:
mail.ru


Tracklist:
FLAC LOSSLESS 24bit-96kHz
Dynamic Range 13

foobar2000 1.4.3 / Dynamic Range Meter 1.1.1
log date: 2020-10-08 20:09:38

--------------------------------------------------------------------------------
Analyzed: Van Halen / Audiophile Collection '78-'91 [24bit-96kHz]
--------------------------------------------------------------------------------

DR Peak RMS Duration Track
--------------------------------------------------------------------------------
DR13 -0.70 dB -16.04 dB 3:37 01-Runnin' With The Devil
DR12 -1.13 dB -15.95 dB 2:39 02-You Really Got Me
DR13 -1.80 dB -16.55 dB 3:51 03-Ain't Talkin' 'Bout Love
DR13 -1.16 dB -17.01 dB 3:32 04-Jamie's Cryin'
DR12 -1.34 dB -16.76 dB 3:08 05-Dance The Night Away
DR13 -1.33 dB -16.98 dB 4:09 06-D.O.A.
DR14 -1.25 dB -17.47 dB 4:07 07-Women In Love
DR13 -1.48 dB -17.17 dB 3:55 08-Beautiful Girls
DR13 -0.03 dB -15.86 dB 3:33 09-And The Cradle Will Rock…
DR12 -1.68 dB -16.84 dB 5:07 10-Everybody Wants Some!!
DR13 -5.37 dB -21.57 dB 3:10 11-Could This Be Magic?
DR12 -0.37 dB -15.67 dB 3:28 12-Unchained
DR12 -1.65 dB -15.94 dB 3:05 13-Where Have All The Good Times Gone!
DR11 -1.36 dB -14.07 dB 2:56 14-(Oh) Pretty Woman
DR13 -0.64 dB -15.42 dB 3:46 15-Dancing In The Street
DR14 -3.35 dB -19.24 dB 4:03 16-Jump
DR13 -3.90 dB -19.02 dB 3:32 17-Panama
DR13 -2.98 dB -18.09 dB 4:44 18-Hot For Teacher
DR14 -0.70 dB -18.49 dB 4:44 19-I'll Wait
DR12 -0.05 dB -14.49 dB 3:44 20-Why Can't This Be Love
DR12 -0.10 dB -14.39 dB 4:54 21-Dreams
DR11 -0.10 dB -14.92 dB 4:46 22-Best Of Both Worlds
DR12 -0.76 dB -15.26 dB 5:09 23-Love Walks In
DR13 0.00 dB -17.08 dB 5:41 24-When It's Love
DR15 -1.39 dB -19.63 dB 4:26 25-Finish What Ya Started
DR14 -2.25 dB -18.56 dB 5:29 26-Black And Blue
DR12 -2.46 dB -17.66 dB 4:21 27-Runaround
DR12 -1.69 dB -16.99 dB 5:22 28-Right Now

Number of tracks: 28
Official DR value: DR13

Samplerate: 96000 Hz
Channels: 2
Bits per sample: 24
Bitrate: 2993 kbps
Codec: FLAC


Скачать:
Внимание! У вас нет прав для просмотра скрытого текста.


==============

Изменил: Ollleg по причине: удалена ссылка на чужой ресурс

Релиз понравился ? Скажи автору спасибо !

Категория: Vinyl Rip, Rock, Art-rock, Hard-rock

Уважаемый посетитель, Вы зашли на сайт как незарегистрированный пользователь.
Мы рекомендуем Вам зарегистрироваться либо войти на сайт под своим именем.
<
  • 49 комментариев
  • 0 публикаций
  • ICQ:
4 ноября 2020 12:21

tamduha65

  • Группа: Меломан
  • Регистрация: 7.10.2020
  • Статус: Пользователь offline
 
Спасибо за релиз!
И светлая память великому рок-музыканту Эдди Ван Халену!

<
  • 1 комментарий
  • 0 публикаций
  • ICQ:
22 ноября 2020 04:17

Радио

  • Группа: Меломан
  • Регистрация: 12.11.2019
  • Статус: Пользователь offline
 
Добрый день! А какой пароль на архив?

<
  • 2101 комментарий
  • 803 публикации
  • ICQ:
22 ноября 2020 10:14

Ollleg

  • Группа: Vizitor
  • Регистрация: 14.07.2012
  • Статус: Пользователь offline
 
burgui, доброго дня.
Не нужно в релизах давать ссылки на иные ресурсы - только то, что предполагает шаблон для новости.

Информация
Посетители, находящиеся в группе Гости, не могут оставлять комментарии к данной публикации.