» » Autopsy - Mental Funeral(1991)

 
 
 

Autopsy - Mental Funeral(1991)

Автор: Ollleg от 3-08-2013, 17:52, посмотрело: 2073

2
Vinyl-Rip by Ollleg



Autopsy - Mental Funeral(1991)



Название:
Mental Funeral

Исполнитель:
Autopsy

Жанр: Hard-rock, metal
Год выпуска: 1991
Количество композиций: 12
Фирма: Final Holocaust Records ‎- Russia
Номер по каталогу: FH 001
Формат: mp3 + lossless
Качество: cbr 320 kbps + flac 24 bit/96 kHz + flac 16-44
Размер файла: 96 mb + 281 mb + 901 mb

Предпрослушивание: lp,mp3-320


Список композиций:
Side A
01 -Twisted Mass Of Burnt Decay
02 -In The Grip Of Winter
03 -Fleshcrawl
04 -Torn From The Womb
05 -Slaughterday
06 -Dead

Side B
07 -Robbing The Grave
08 -Hole In The Head
09 -Destined To Fester
10 -Bonesaw
11 -Dark Crusade
12 -Mental Funeral







СUE для релиза под спойлером
*любезно предоставил посетитель XELENA :



Скачать Autopsy - Mental Funeral(1991) :
Внимание! У вас нет прав для просмотра скрытого текста.


Релиз понравился ? Скажи автору спасибо !

Категория: Vinyl Rip, Rock, Art-rock, Hard-rock

Уважаемый посетитель, Вы зашли на сайт как незарегистрированный пользователь.
Мы рекомендуем Вам зарегистрироваться либо войти на сайт под своим именем.
<
  • 509 комментариев
  • 104 публикации
  • ICQ:
3 августа 2013 23:17

xelena

  • Группа: Главный Редактор
  • Регистрация: 19.07.2012
  • Статус: Пользователь offline
 
REM GENRE Rock
REM DATE 1991
REM COMMENT Final Holocaust Records\FH 001\Vinylrip by Ollleg
PERFORMER "Autopsy"
TITLE "Mental Funeral"
FILE "AUTOPSY - 1985 side B-1.flac" WAVE
TRACK 01 AUDIO
TITLE "Twisted Mass Of Burnt Decay"
INDEX 01 00:00:00
TRACK 02 AUDIO
TITLE "In The Grip Of Winter"
INDEX 01 02:18:30
TRACK 03 AUDIO
TITLE "Fleshcrawl"
INDEX 01 06:31:28
TRACK 04 AUDIO
TITLE "Torn From The Womb"
INDEX 01 07:06:50
TRACK 05 AUDIO
TITLE "Slaughterday"
INDEX 01 10:29:11
TRACK 06 AUDIO
TITLE "Dead"
INDEX 01 14:45:37
FILE "AUTOPSY - 1985 side A-1.flac" WAVE
TRACK 07 AUDIO
TITLE "Robbing The Grave"
INDEX 01 00:00:00
TRACK 08 AUDIO
TITLE "Hole In The Head"
INDEX 01 04:21:68
TRACK 09 AUDIO
TITLE "Destined To Fester"
INDEX 01 10:26:64
TRACK 10 AUDIO
TITLE "Bonesaw"
INDEX 01 15:02:32
TRACK 11 AUDIO
TITLE "Dark Crusade"
INDEX 01 15:48:56
TRACK 12 AUDIO
TITLE "Mental Funeral"
INDEX 01 19:44:48

<
  • 1523 комментария
  • 697 публикаций
  • ICQ:
4 августа 2013 03:05

Ollleg

  • Группа: Vizitor
  • Регистрация: 14.07.2012
  • Статус: Пользователь offline
 
xelena,
Очередное СПА за CUE !!!
smile-29
smile-33

Информация
Посетители, находящиеся в группе Гости, не могут оставлять комментарии к данной публикации.