» » Led Zeppelin II , III (1969,70)

 
 
 

Led Zeppelin II , III (1969,70)

Автор: Ollleg от 31-07-2013, 21:07, посмотрело: 3013

1
Vinyl-Rip by Ollleg



Led Zeppelin II , III (1969,70)

Led Zeppelin II , III (1969,70)



Название:
Led Zeppelin II,III

Исполнитель:
Led Zeppelin

Жанр: Rock
Год выпуска: 1969-70
Количество композиций: 19 (2LP)
Фирма: Продюсерский центр рок-н-рольных приходов
Единой Евангелическо-Лютеранской Церкви России.СПБ.,1992
Номер по каталогу: П91 00121 1,4)32125,П91 00122 2,4)32126
Формат: mp3 + lossless
Качество: cbr 320 kbps + flac 24 bit/96 kHz
Размер файла: 203 mb + 889 mb + 952 mb
***Оцифрован заново через ламповый корр

Предпрослушивание: lp,mp3-320 LP1


Предпрослушивание: lp,mp3-320 LP2


Список композиций:

lp1
01 - Полным-полно любви
02 - Что есть и чего не надо
03 - Лимонная песня
04 - Спасибо
05 - Разбивающий сердца
06 - Живая любящая девушка
07 - Бред
08 - Моби Дик
09 - Тащи домой

lp2
01 - Песня иммигранта
02 - Друзья
03 - Праздничный день
04 - С тех пор как я полюбил тебя
05 - В загул
06 - Виселица
07 - Мандарин
08 - Вот так
09 - Bron-y-aur stormp
10 - Шляпы долой перед (Роем)Харпером

Внимание! У вас нет прав для просмотра скрытого текста.




Внимание! У вас нет прав для просмотра скрытого текста.


СUE для релиза под спойлером
*любезно предоставил посетитель XELENA :



Скачать Led Zeppelin II,III :
Внимание! У вас нет прав для просмотра скрытого текста.


Релиз понравился ? Скажи автору спасибо !

Категория: Vinyl Rip, Rock, Art-rock, Hard-rock

Уважаемый посетитель, Вы зашли на сайт как незарегистрированный пользователь.
Мы рекомендуем Вам зарегистрироваться либо войти на сайт под своим именем.
<
  • 509 комментариев
  • 104 публикации
  • ICQ:
1 августа 2013 18:13

xelena

  • Группа: Главный Редактор
  • Регистрация: 19.07.2012
  • Статус: Пользователь offline
 
SUPER! THNX!
---------------------------------------
LED ZEPPELIN II.cue
---------------------------------------
REM GENRE Rock
REM DATE 1969
REM COMMENT Продюсерский центр рок-н-рольных приходов Единой Евангелическо-Лютеранской Церкви России.СПБ.,1992\П91 00121 1,4)32125,П91 00122 2,4)32126\vinilrip by ollleg
PERFORMER "Лед Зеппелин / Led Zeppelin"
TITLE "Лед Зеппелин II / Led Zeppelin II"
FILE "LED ZEPPELIN II side A-1.flac" WAVE
TRACK 01 AUDIO
TITLE "Полным-полно любви / Whole Lotta Love"
INDEX 01 00:00:00
TRACK 02 AUDIO
TITLE "Что есть и чего не надо / What Is and What Should Never Be"
INDEX 01 05:34:56
TRACK 03 AUDIO
TITLE "Лимонная песня / The Lemon Song"
INDEX 01 10:20:52
TRACK 04 AUDIO
TITLE "Спасибо / Thank You"
INDEX 01 16:42:74
FILE "LED ZEPPELIN II side B-1.flac" WAVE
TRACK 05 AUDIO
TITLE "Разбивающий сердца / Heartbreaker"
INDEX 01 00:00:00
TRACK 06 AUDIO
TITLE "Живая любящая девушка (Всего лишь женщина) / Living Loving Maid (She's Just a Woman)"
INDEX 01 02:49:34
TRACK 07 AUDIO
TITLE "Бред / Ramble On"
INDEX 01 06:52:64
TRACK 08 AUDIO
TITLE "Моби Дик / Moby Dick"
INDEX 01 11:03:38
TRACK 09 AUDIO
TITLE "Тащи домой / Bring It On Home"
INDEX 01 15:24:14
--------------------------------
LED ZEPPELIN III.cue
--------------------------------
REM GENRE Rock
REM DATE 1970
REM COMMENT Продюсерский центр рок-н-рольных приходов Единой Евангелическо-Лютеранской Церкви России.СПБ.,1992\П91 00121 1,4)32125,П91 00122 2,4)32126\vinilrip by ollleg
PERFORMER "Лед Зеппелин / Led Zeppelin"
TITLE "Лед Зеппелин III / Led Zeppelin III"
FILE "LED ZEPPELIN III side A-1.flac" WAVE
TRACK 01 AUDIO
TITLE "Песня иммигранта / Immigrant Song"
INDEX 01 00:00:00
TRACK 02 AUDIO
TITLE "Друзья / Friends"
INDEX 01 02:24:37
TRACK 03 AUDIO
TITLE "Праздничный день / Celebration Day"
INDEX 01 06:18:54
TRACK 04 AUDIO
TITLE "С тех пор как я полюбил тебя / Since I've Been Loving You"
INDEX 01 09:47:38
TRACK 05 AUDIO
TITLE "В загул / Out on the Tiles"
INDEX 01 17:13:37
FILE "LED ZEPPELIN III side B-1.flac" WAVE
TRACK 06 AUDIO
TITLE "Виселица / Gallows Pole"
INDEX 01 00:00:00
TRACK 07 AUDIO
TITLE "Мандарин / Tangerine"
INDEX 01 04:56:23
TRACK 08 AUDIO
TITLE "Вот так / Thet's the Way"
INDEX 01 07:59:37
TRACK 09 AUDIO
TITLE "Bron-Y-Aur Stomp"
INDEX 01 13:37:60
TRACK 10 AUDIO
TITLE "Шляпы долой перед (Роем) Харпером / Hats Off to (Roy) Harper"
INDEX 01 17:57:45

Информация
Посетители, находящиеся в группе Гости, не могут оставлять комментарии к данной публикации.