» » Jerry Lee Lewis – The Collection: 20 Rock’n’Roll Great (1988)

 
 
 

Jerry Lee Lewis – The Collection: 20 Rock’n’Roll Great (1988)

Автор: Ollleg от 29-07-2013, 19:56, посмотрело: 2507

1
Vinyl-Rip by Ollleg



Jerry Lee Lewis – The Collection: 20 Rock’n’Roll Great (1988)



Название:
The Collection: 20 Rock’n’Roll Great

Исполнитель:
Jerry Lee Lewis

Жанр: Rock, Rock-n-roll
Год выпуска: 1988
Количество композиций: 20
Фирма: Balkanton
Номер по каталогу: BTA 12468-A
Формат: mp3 + lossless
Качество: cbr 320 kbps + flac 24 bit/96 kHz + flac 16 bit/44 kHz
Размер файла: 128 mb + 317 mb + 1,01 gb

Предпрослушивание: lp,mp3-320


Список композиций:
Side A:
1 - Whole Lotta Shakin' Goin' On.
2 - Great Balls Of Fire.
3 - It'll Be Me.
4 - Lovin' Up A Storm.
5 - Hi-Heel Sneakers.
6 - Roll Over Beethoven.
7 - I Got A Woman.
8 - Good Golly Miss Molly.
9 - I Believe In You.
10 - Hound Dog.

Side B:
11 - Long Tall Sally.
12 - Johnny B. Goode.
13 - Flip, Flop And Fly.
14 - Maybelline.
15 - What'd I Say.
16 - Money.
17 - Lewis Boogie.
18 - High School.
19 - Breathless.
20 - Matchbox.







СUE для релиза под спойлером
*любезно предоставил посетитель XELENA :



Скачать Jerry Lee Lewis – The Collection: 20 Rock’n’Roll Great (1988) :
Внимание! У вас нет прав для просмотра скрытого текста.


Релиз понравился ? Скажи автору спасибо !

Категория: Vinyl Rip, rock-n-roll

Уважаемый посетитель, Вы зашли на сайт как незарегистрированный пользователь.
Мы рекомендуем Вам зарегистрироваться либо войти на сайт под своим именем.
<
  • 510 комментариев
  • 104 публикации
  • ICQ:
31 июля 2013 07:25

xelena

  • Группа: Главный Редактор
  • Регистрация: 19.07.2012
  • Статус: Пользователь offline
 
NEPODRAZHAEMYI. SPASIBO!
---------------------------------------
REM GENRE Rock, Rock-n-roll
REM DATE 1988
REM COMMENT Фирма: Balkanton / Номер по каталогу:BTA 12468
PERFORMER "Jerry Lee Lewis"
TITLE "The Collection: 20 Rock'n'Roll Greats"
FILE "JERRY LEE LEWIS side A-1.flac" WAVE
TRACK 01 AUDIO
TITLE "Whole Lotta Shakin' Goin' On"
INDEX 01 00:00:00
TRACK 02 AUDIO
TITLE "Great Balls Of Fire"
INDEX 01 02:54:67
TRACK 03 AUDIO
TITLE "It'll Be Me"
INDEX 01 04:47:00
TRACK 04 AUDIO
TITLE "Lovin' Up A Storm"
INDEX 01 07:00:32
TRACK 05 AUDIO
TITLE "Hi-Heel Sneakers"
INDEX 01 08:55:14
TRACK 06 AUDIO
TITLE "Roll Over Beethoven"
INDEX 01 12:28:08
TRACK 07 AUDIO
TITLE "I Got A Woman"
INDEX 01 15:18:37
TRACK 08 AUDIO
TITLE "Good Golly Miss Molly"
INDEX 01 19:12:60
TRACK 09 AUDIO
TITLE "I Believe In You"
INDEX 01 21:30:30
TRACK 10 AUDIO
TITLE "Hound Dog"
INDEX 01 24:08:15
FILE "JERRY LEE LEWIS side b-1.flac" WAVE
TRACK 11 AUDIO
TITLE "Long Tall Sally"
INDEX 01 00:00:00
TRACK 12 AUDIO
TITLE "Johnny B. Goode"
INDEX 01 01:45:19
TRACK 13 AUDIO
TITLE "Flip, Flop And Fly"
INDEX 01 03:59:08
TRACK 14 AUDIO
TITLE "Maybelline"
INDEX 01 05:59:48
TRACK 15 AUDIO
TITLE "What'd I Say"
INDEX 01 08:09:01
TRACK 16 AUDIO
TITLE "Money"
INDEX 01 10:42:36
TRACK 17 AUDIO
TITLE "Lewis Boogie"
INDEX 01 15:41:38
TRACK 18 AUDIO
TITLE "High School"
INDEX 01 17:42:37
TRACK 19 AUDIO
TITLE "Breathless"
INDEX 01 20:15:30
TRACK 20 AUDIO
TITLE "Matchbox"
INDEX 01 23:01:74

Информация
Посетители, находящиеся в группе Гости, не могут оставлять комментарии к данной публикации.