» » Pungent Stench - For God Your Soul...For Me Your Flesh (1990)

 
 
 

Pungent Stench - For God Your Soul...For Me Your Flesh (1990)

Автор: Ollleg от 29-07-2013, 19:25, посмотрело: 2255

1
Vinyl-Rip by Ollleg



Pungent Stench - For God Your Soul...For Me Your Flesh (1990)



Название:
For God Your Soul...For Me Your Flesh

Исполнитель:
Pungent Stench

Жанр: Hard-rock, metal
Год выпуска: 1990
Количество композиций: 10
Фирма: NUCLEAR BLAST RECORDS "Aprelevka lnc"
Made in Russia by Russian-American Joint Venture
Номер по каталогу: FH 002
Формат: mp3 + lossless
Качество: cbr 320 kbps + flac 24 bit/96 kHz + flac 16/44 kHz
Размер файла: 105 mb + 343 mb + 1,04 gb

Предпрослушивание: lp,mp3-320


Список композиций:
Side A:
01. Intro (Extreme Deformity)
02. Hypnos
03. For God Your Soul ... For Me Your Flesh
04. Just Let Me Rot
05. Pungent Stench

Side B:
06. Bonesawer
07. Embalmed In Sulphuric Acid
08. Blood,Pus & Gastric Juice
09. Suspended Animation
10. A Small Lunch







СUE для релиза под спойлером
*любезно предоставил посетитель XELENA :



Скачать Pungent Stench - For God Your Soul...For Me Your Flesh (1990) :
Внимание! У вас нет прав для просмотра скрытого текста.


Релиз понравился ? Скажи автору спасибо !

Категория: Vinyl Rip, Rock, Art-rock, Hard-rock

Уважаемый посетитель, Вы зашли на сайт как незарегистрированный пользователь.
Мы рекомендуем Вам зарегистрироваться либо войти на сайт под своим именем.
<
  • 509 комментариев
  • 104 публикации
  • ICQ:
30 июля 2013 15:31

xelena

  • Группа: Главный Редактор
  • Регистрация: 19.07.2012
  • Статус: Пользователь offline
 
REM GENRE Rock
REM DATE 1990
PERFORMER "Pungent Stench"
TITLE "For God Your Soul ... For Me Your Flesh"
FILE "PUNGENT side B-1.flac" WAVE
TRACK 01 AUDIO
TITLE "Intro/Extreme Deformity"
INDEX 01 00:00:00
TRACK 02 AUDIO
TITLE "Hypnos"
INDEX 01 05:01:74
TRACK 03 AUDIO
TITLE "For God Your Soul...For Me Your Flesh"
INDEX 01 08:16:22
TRACK 04 AUDIO
TITLE "Just Let Me Rot"
INDEX 01 15:23:29
TRACK 05 AUDIO
TITLE "Pungent Stench"
INDEX 01 19:13:37
FILE "PUNGENT side A-1.flac" WAVE
TRACK 06 AUDIO
TITLE "Bonesawer"
INDEX 01 00:00:00
TRACK 07 AUDIO
TITLE "Embalmed In Sulphuric Acid"
INDEX 01 03:43:26
TRACK 08 AUDIO
TITLE "Blood, Pus & Gastric Juice (Hippie Version)"
INDEX 01 05:57:56
TRACK 09 AUDIO
TITLE "Suspended Animation"
INDEX 01 10:50:01
TRACK 10 AUDIO
TITLE "A Small Lunch"
INDEX 01 15:13:37

Информация
Посетители, находящиеся в группе Гости, не могут оставлять комментарии к данной публикации.