» » Venom - Possessed (1985)

 
 
 

Venom - Possessed (1985)

Автор: Ollleg от 26-07-2013, 23:28, посмотрело: 1598

1
Vinyl-Rip by Ollleg



Venom - Possessed (1985)



Название:
Possessed

Исполнитель:
Venom

Жанр: Hard-rock, metal
Год выпуска: 1985
Количество композиций: 13
Фирма: TANPRESS- made in Poland
Номер по каталогу: SX-T 92
Формат: mp3 + lossless
Качество: cbr 320 kbps + flac 24 bit/96 kHz + flac 16 bit/44 kHz
Размер файла: 105 mb + 293 mb + 935mb

Предпрослушивание: lp,mp3-320


Список композиций:
Side A :
01. Powerdrive
02. Flytrap
03. Satanachist
04. Burn This Place (To the Ground)
05. Harmony Dies
06. Possessed
Side B :
07. Hellchild
08. Moonshine
09. Wing and a Prayer
10. Suffer Not the Children
11. Voyeur
12. Mystique
13. Too Loud (For the Crowd)







СUE для релиза под спойлером
*любезно предоставил посетитель XELENA :



Скачать Venom - Possessed (1985) :
Внимание! У вас нет прав для просмотра скрытого текста.


Релиз понравился ? Скажи автору спасибо !

Категория: Vinyl Rip, Rock, Art-rock, Hard-rock

Уважаемый посетитель, Вы зашли на сайт как незарегистрированный пользователь.
Мы рекомендуем Вам зарегистрироваться либо войти на сайт под своим именем.
<
  • 509 комментариев
  • 104 публикации
  • ICQ:
30 июля 2013 09:54

xelena

  • Группа: Главный Редактор
  • Регистрация: 19.07.2012
  • Статус: Пользователь offline
 
Venom - Possessed.cue
--------------------------------------
REM GENRE Rock
REM DATE 1985
REM COMMENT Label: TONPRESS /made in Poland/ Cat #: SX-T 92
PERFORMER "Venom"
TITLE "Possessed"
FILE "POSSESSED 1985 side A-1.flac" WAVE
TRACK 01 AUDIO
TITLE "Powerdrive"
INDEX 01 00:00:00
TRACK 02 AUDIO
TITLE "Flytrap"
INDEX 01 03:11:14
TRACK 03 AUDIO
TITLE "Satanachist"
INDEX 01 06:55:57
TRACK 04 AUDIO
TITLE "Burn This Place (To The Ground)"
INDEX 01 09:35:15
TRACK 05 AUDIO
TITLE "Harmony Dies"
INDEX 01 12:09:37
TRACK 06 AUDIO
TITLE "Possessed"
INDEX 01 14:47:64
FILE "POSSESSED 1985 side B-1.flac" WAVE
TRACK 07 AUDIO
TITLE "Hellchild"
INDEX 01 00:00:00
TRACK 08 AUDIO
TITLE "Moonshine"
INDEX 01 02:43:60
TRACK 09 AUDIO
TITLE "Wing And A Prayer"
INDEX 01 06:03:15
TRACK 10 AUDIO
TITLE "Suffer Not The Children"
INDEX 01 08:48:54
TRACK 11 AUDIO
TITLE "Voyeur"
INDEX 01 11:59:56
TRACK 12 AUDIO
TITLE "Mystique"
INDEX 01 15:02:30
TRACK 13 AUDIO
TITLE "Too Loud (For The Crowd)"
INDEX 01 20:02:19

Информация
Посетители, находящиеся в группе Гости, не могут оставлять комментарии к данной публикации.