» » SEXEPIL - Love Jealousy Hate (1990)

 
 
 

SEXEPIL - Love Jealousy Hate (1990)

Автор: Ollleg от 26-07-2013, 21:48, посмотрело: 2842

1
Vinyl-Rip by Ollleg



SEXEPIL - Love Jealousy Hate (1990)



Название:
Love Jealousy Hate

Исполнитель:
SEXEPIL

Жанр: Hard-rock, metal
Год выпуска: 1990
Количество композиций: 12
Фирма: ZONA Records
Номер по каталогу: ZN 009
Формат: mp3 + lossless
Качество: cbr 320 kbps + flac 24 bit/96 kHz + flac 16 bit/44 kHz
Размер файла: 106 mb + 304 mb + 985mb

Предпрослушивание: lp,mp3-320


Список композиций:
Side A:
01- ANGEL
02- WHY
03- NOBODY IS AN ISLAND
04- THE WIND
05- WONDER BOY
06- BIG DAYS

Side B:
07- ONCE UPON A TIME IN THE EAST BLISS
08- BUDA GIRL
09- FLASH FROM HEAVEN
10- SOMEWHERE
11- PARADISE
12- GARDEN OF EDEN







СUE для релиза под спойлером
*любезно предоставил посетитель XELENA :



Скачать SEXEPIL - Love Jealousy Hate (1990) :
Внимание! У вас нет прав для просмотра скрытого текста.


Релиз понравился ? Скажи автору спасибо !

Категория: Vinyl Rip, Rock, Art-rock, Hard-rock

Уважаемый посетитель, Вы зашли на сайт как незарегистрированный пользователь.
Мы рекомендуем Вам зарегистрироваться либо войти на сайт под своим именем.
<
  • 509 комментариев
  • 104 публикации
  • ICQ:
30 июля 2013 09:55

xelena

  • Группа: Главный Редактор
  • Регистрация: 19.07.2012
  • Статус: Пользователь offline
 
SEXEPIL - Love Jealousy Hate.cue
---------------------------------------
REM GENRE Hard-rock, metal
REM DATE 1990
PERFORMER "Sexepil"
TITLE "Love Jealousy Hate"
FILE "SEXEPIL 1990 side A-1.flac" WAVE
TRACK 01 AUDIO
TITLE "Angel"
INDEX 01 00:00:00
TRACK 02 AUDIO
TITLE "Why"
INDEX 01 04:04:37
TRACK 03 AUDIO
TITLE "Nobody Is An Island"
INDEX 01 07:40:00
TRACK 04 AUDIO
TITLE "The Wind"
INDEX 01 11:46:72
TRACK 05 AUDIO
TITLE "Wonder Boy"
INDEX 01 15:52:37
TRACK 06 AUDIO
TITLE "Big Days"
INDEX 01 18:15:03
FILE "SEXEPIL 1990 side B-1.flac" WAVE
TRACK 07 AUDIO
TITLE "Once Upon A Time In The East (Intro) / Bliss"
INDEX 01 00:00:00
TRACK 08 AUDIO
TITLE "Buda Girl"
INDEX 01 04:58:38
TRACK 09 AUDIO
TITLE "Flash From Heaven"
INDEX 01 10:19:74
TRACK 10 AUDIO
TITLE "Somewhere"
INDEX 01 13:22:37
TRACK 11 AUDIO
TITLE "Paradise"
INDEX 01 16:06:12
TRACK 12 AUDIO
TITLE "Garden Of Eden"
INDEX 01 18:44:38

Информация
Посетители, находящиеся в группе Гости, не могут оставлять комментарии к данной публикации.