» » The Beatles - Revolver (1966) Japan

 
 
 

The Beatles - Revolver (1966) Japan

Автор: Ollleg от 23-09-2020, 00:09, посмотрело: 297

6
* LP *



The Beatles - Revolver (1966)  Japan


Альбом:
Revolver
Имя исполнителя/ группы:
The Beatles

Музыкальный жанр/ стиль: rock
Дата записи/ выхода: 1966г
Файл раздачи: Flac 32/192
Вес архива: 1,87 gb
""""пробная оцифровка

The Beatles - Revolver (1966)  Japan
The Beatles - Revolver (1966)  Japan
The Beatles - Revolver (1966)  Japan
The Beatles - Revolver (1966)  Japan
The Beatles - Revolver (1966)  Japan
The Beatles - Revolver (1966)  Japan
состояние винила: N Mint
Дополнительно:
Оцифровку выполнил: Ollleg
Проигрыватель: --
Корректор: --
Звуковая аудиокарта: --
Оцифрован программой:--
Пост-обработка: без обработки.

Скачать :
Внимание! У вас нет прав для просмотра скрытого текста.

==============


Изменил: Ollleg по причине: Релиз размещён временно

Релиз понравился ? Скажи автору спасибо !

Категория: Vinyl Rip, Rock, Art-rock, Hard-rock

Уважаемый посетитель, Вы зашли на сайт как незарегистрированный пользователь.
Мы рекомендуем Вам зарегистрироваться либо войти на сайт под своим именем.
<
  • 49 комментариев
  • 0 публикаций
  • ICQ:
23 сентября 2020 20:44

val2015

  • Группа: Ветеран проекта
  • Регистрация: 4.06.2015
  • Статус: Пользователь offline
 
Судя по конверту, японское издание 1976 года (Japan) - https://www.discogs.com/The-Beatles-Revolver/release/1673075

Спасибо, заслушаем

Судя по конверту, японское издание 1976 года (Apple Records)
https://www.discogs.com/The-Beatles-Revolver/release/1673075

<
  • 49 комментариев
  • 0 публикаций
  • ICQ:
24 сентября 2020 10:12

val2015

  • Группа: Ветеран проекта
  • Регистрация: 4.06.2015
  • Статус: Пользователь offline
 
Cue:

REM GENRE Rock
REM DATE 1966
PERFORMER "The Beatles"
TITLE "Revolver (LP Japan 1976)"
FILE "сторона 1.wav" WAVE
TRACK 01 AUDIO
TITLE "Taxman"
PERFORMER "The Beatles"
INDEX 01 00:00:00
TRACK 02 AUDIO
TITLE "Eleanor Rigby"
PERFORMER "The Beatles"
INDEX 01 02:40:00
TRACK 03 AUDIO
TITLE "I'm Only Sleeping"
PERFORMER "The Beatles"
INDEX 01 04:48:00
TRACK 04 AUDIO
TITLE "Love You To"
PERFORMER "The Beatles"
INDEX 01 07:53:25
TRACK 05 AUDIO
TITLE "Here, There and Everywhere"
PERFORMER "The Beatles"
INDEX 01 10:57:40
TRACK 06 AUDIO
TITLE "Yellow Submarine"
PERFORMER "The Beatles"
INDEX 01 13:26:30
TRACK 07 AUDIO
TITLE "She Said She Said"
PERFORMER "The Beatles"
INDEX 01 16:09:60
FILE "сторона 2.wav" WAVE
TRACK 08 AUDIO
TITLE "Good Day Sunshine"
PERFORMER "The Beatles"
INDEX 01 00:00:00
TRACK 09 AUDIO
TITLE "And Your Bird Can Sing"
PERFORMER "The Beatles"
INDEX 01 02:10:52
TRACK 10 AUDIO
TITLE "For No One"
PERFORMER "The Beatles"
INDEX 01 04:15:32
TRACK 11 AUDIO
TITLE "Doctor Robert"
PERFORMER "The Beatles"
INDEX 00 06:17:57
TRACK 12 AUDIO
TITLE "I Want To Tell You"
PERFORMER "The Beatles"
INDEX 00 08:37:20
TRACK 13 AUDIO
TITLE "Got To Get You Into My Life"
PERFORMER "The Beatles"
INDEX 00 11:07:15
TRACK 14 AUDIO
TITLE "Tomorrow Never Knows"
PERFORMER "The Beatles"
INDEX 01 13:38:62

<
  • 2077 комментариев
  • 832 публикации
  • ICQ:
27 сентября 2020 21:19

Ollleg

  • Группа: Vizitor
  • Регистрация: 14.07.2012
  • Статус: Пользователь offline
 
Валерий, спасибо за куй,
но как отмечено - это пробная оцифровка (на не отстроенном тракте) поэтому сам гадаю, что вы там слышите....

Может отпишутся те, кто скачал?
Приветствуются замечания и указания на недостатки.
Спасибо.
п.с.

В этом месяце на мешке приобретено 55 винилов,
которые впоследствии будут оцифрованы и выставлены на нашем сайте,
но для начала нужно будет определиться с трактом, поэтому
будут выставляться пробные оцифровки.

<
  • 2 комментария
  • 0 публикаций
  • ICQ:
10 октября 2020 22:39

ivanbeatle

  • Группа: Меломан
  • Регистрация: 5.02.2020
  • Статус: Пользователь offline
 
Спасибо! А Битлз еще будут?

<
  • 2077 комментариев
  • 832 публикации
  • ICQ:
11 октября 2020 09:07

Ollleg

  • Группа: Vizitor
  • Регистрация: 14.07.2012
  • Статус: Пользователь offline
 
Цитата: ivanbeatle
Спасибо! А Битлз еще будут?


немного:

2LP THE BEATLES 1962-1966 ("Country Flag" Serie NMINT
2LP THE BEATLES 1967-1970 ("Country Flag" Serie NMINT
LP THE BEATLES Abbey Road ("Country Flag" Serie NMINT
LP THE BEATLES Let It Be ("Country Flag" Series NMINT
THE BEATLES _ SGT. Peppers Lonely Hearts Club Band Lp/ ORIGINAL JAPAN /
THE BEATLES _ HELP ! '69 LP/ ORIGINAL JAPAN, NMINT-/EX /
LP The Beatles – Rubber Soul (US 1971

JOHN LENNON - Plastic ono band Lp/ ORIGINAL JAPAN / NMINT

<
  • 2 комментария
  • 0 публикаций
  • ICQ:
11 октября 2020 19:41

ivanbeatle

  • Группа: Меломан
  • Регистрация: 5.02.2020
  • Статус: Пользователь offline
 
Ого! Целая коллекция! Ждём с нетерпением)

Информация
Посетители, находящиеся в группе Гости, не могут оставлять комментарии к данной публикации.