» » "Stooges" - Студжиз (1991)

 
 
 

"Stooges" - Студжиз (1991)

Автор: Ollleg от 26-07-2013, 21:06, посмотрело: 4147

1
Vinyl-Rip by Ollleg



"Stooges" - Студжиз (1991)



Название:
Студжиз

Исполнитель:
Студжиз

Жанр: Pop Rock, Synth-pop
Год выпуска: 1991
Количество композиций: 8
Фирма: Антроп
Продюссерский центр рок-н-ролльных приходов
Единой Евангелическо-Лютеранской Церкви России. СПб., 1991
Номер по каталогу: П91 00113-4
Формат: mp3 + lossless
Качество: cbr 320 kbps + flac 24 bit/96 kHz
Размер файла: 86 mb + 777mb

Предпрослушивание: lp,mp3-320


Список композиций:
Side A
1. 1969
2. Хочу быть твоим псом
3. Мы упадем

Side B
4. Без кайфа
5. Крутые времена
6. Анна
7. Не так
8. Куколка

Игги Поп и группа - вокал
Рон Эштон, гитара
Дэйв Александр, бас-гитара
Скотт Эштон, барабаны
Продюсер Джон Кэйп







СUE для релиза под спойлером
*любезно предоставил посетитель XELENA :



Скачать "Stooges" - Студжиз (1991), vinyl-rip :
Внимание! У вас нет прав для просмотра скрытого текста.


Релиз понравился ? Скажи автору спасибо !

Категория: Vinyl Rip, Rock, Art-rock, Hard-rock, pop muzic

Уважаемый посетитель, Вы зашли на сайт как незарегистрированный пользователь.
Мы рекомендуем Вам зарегистрироваться либо войти на сайт под своим именем.
<
  • 556 комментариев
  • 102 публикации
  • ICQ:
30 июля 2013 10:05

xelena

  • Группа: ГЛАВНЫЙ РЕДАКТОР
  • Регистрация: 19.07.2012
  • Статус: Пользователь offline
 
Студжиз - 1969 - Студжиз (1991).cue
--------------------------------------------
REM GENRE Rock
REM DATE 1991
REM COMMENT Фирма:Антроп / Номер по каталогу:П91 00113-4
PERFORMER "Студжиз"
TITLE "Студжиз"
FILE "СТУДЖИЗ side B-1.flac" WAVE
TRACK 01 AUDIO
TITLE "1969"
INDEX 01 00:00:00
TRACK 02 AUDIO
TITLE "Хочу Быть Твоим Псом"
INDEX 01 04:09:15
TRACK 03 AUDIO
TITLE "Мы упадем"
INDEX 01 07:19:18
FILE "СТУДЖИЗ side A-1.flac" WAVE
TRACK 04 AUDIO
TITLE "Без Кайфа"
INDEX 01 00:00:00
TRACK 05 AUDIO
TITLE "Крутые Времена"
INDEX 01 05:14:71
TRACK 06 AUDIO
TITLE "Анна"
INDEX 01 07:49:38
TRACK 07 AUDIO
TITLE "Не Так"
INDEX 01 10:53:04
TRACK 08 AUDIO
TITLE "Куколка"
INDEX 01 13:47:00

Информация
Посетители, находящиеся в группе Гости, не могут оставлять комментарии к данной публикации.