» » The Mission - Grains of Sand (1990)

 
 
 

The Mission - Grains of Sand (1990)

Автор: Ollleg от 22-07-2013, 13:15, посмотрело: 1657

1
Vinyl-Rip by Ollleg



The Mission - Grains of Sand (1990)

Культовая группа 80х



Название:
Grains of Sand

Исполнитель:
The Mission

Жанр: Alternative Rock
Год выпуска: 1990
Количество композиций: 10
Фирма: Акционерное общество ЛАДЪ (Москва)
Номер по каталогу: LD-238017 ; 937-1 SI
Формат: mp3 + lossless
Качество: cbr 320 kbps + flac 24 bit/96 kHz + flac 16 bit/44 kHz
Размер файла: 97 mb + 273 mb + 880mb

Предпрослушивание: lp,mp3-320


Список композиций:
side one:
01. Hands Across The Ocean
02. The Grip Of Disease
03. Divided We Fall
04. Mercenary
05. Mr. Pleasant
side two:
06. Kingdom Come (Forever And Again)
07. Heaven Sends You
08. Sweet Smile Of A Mystery
09. Love
10. Bird Of Passage







СUE для релиза под спойлером
*любезно предоставил посетитель XELENA :



Скачать The Mission - Grains of Sand (1990) :
Внимание! У вас нет прав для просмотра скрытого текста.


Релиз понравился ? Скажи автору спасибо !

Категория: Vinyl Rip, Rock, Art-rock, Hard-rock

Уважаемый посетитель, Вы зашли на сайт как незарегистрированный пользователь.
Мы рекомендуем Вам зарегистрироваться либо войти на сайт под своим именем.
<
  • 510 комментариев
  • 104 публикации
  • ICQ:
26 июля 2013 16:04

xelena

  • Группа: Главный Редактор
  • Регистрация: 19.07.2012
  • Статус: Пользователь offline
 
Gramatno sigranno.
The Mission - Grains of Sand.cue

--------------------------
REM GENRE Alternative Rock
REM DATE 1992
PERFORMER "The Mission"
TITLE "Grains Of Sand"
FILE "THE MISSION side A-1.flac" WAVE
TRACK 01 AUDIO
TITLE "Hands Across The Ocean"
INDEX 01 00:00:00
TRACK 02 AUDIO
TITLE "The Grip Of Disease"
INDEX 01 03:49:22
TRACK 03 AUDIO
TITLE "Divided We Fall"
INDEX 01 08:01:30
TRACK 04 AUDIO
TITLE "Mercenary"
INDEX 01 11:43:45
TRACK 05 AUDIO
TITLE "Mr. Pleasant"
INDEX 01 14:31:38
FILE "THE MISSION side B-1.flac" WAVE
TRACK 06 AUDIO
TITLE "Kingdom Come (Forever And Again)"
INDEX 01 00:00:00
TRACK 07 AUDIO
TITLE "Heaven Sends You"
INDEX 01 04:57:55
TRACK 08 AUDIO
TITLE "Sweet Smile Of A Mystery"
INDEX 01 09:52:00
TRACK 09 AUDIO
TITLE "Love"
INDEX 01 13:46:38
TRACK 10 AUDIO
TITLE "Bird Of Passage"
INDEX 01 15:38:00

Информация
Посетители, находящиеся в группе Гости, не могут оставлять комментарии к данной публикации.