» » WHITESNAKE - WHITESNAKE (1987)

 
 
 

WHITESNAKE - WHITESNAKE (1987)

Автор: Ollleg от 21-07-2013, 17:46, посмотрело: 3217

1
Vinyl-Rip by Ollleg



WHITESNAKE  - WHITESNAKE (1987)



Название:
WHITESNAKE

Исполнитель:
WHITESNAKE

Жанр: Hard-rock
Год выпуска: 1987
Количество композиций: 10
Фирма: БАЛКАНТОН made in BULGARIA
Номер по каталогу: bta 12336
Формат: mp3 + lossless
Качество: cbr 320 kbps + flac 24 bit/96 kHz + flac 16 bit/44 kHz
Размер файла: 120 mb + 381 mb + 1,19GB

Предпрослушивание: lp,mp3-320


Список композиций:
STILL OF THE NIGHT
BAD BOYS
GIVE ME ALL YOUR LOVE
LOOKING FOR LOVE
HERE I GO AGAIN
(USA REMIX)
CRYING IN THE RAIN
IS THIS LOVE
STRAIGHT FOR THE HEART
DON'T TURN AWAY
CHILDREN OF THE NIGHT

DAVID COVERDALE - vocals
JOHN SYKES - guitar and vocals
NEIL MURRAY - bass
AYNSLEY DUNBAR - drums







СUE для релиза под спойлером
*любезно предоставил посетитель XELENA :



Скачать WHITESNAKE :
Внимание! У вас нет прав для просмотра скрытого текста.


Релиз понравился ? Скажи автору спасибо !

Категория: Vinyl Rip, Rock, Art-rock, Hard-rock

Уважаемый посетитель, Вы зашли на сайт как незарегистрированный пользователь.
Мы рекомендуем Вам зарегистрироваться либо войти на сайт под своим именем.
<
  • 509 комментариев
  • 104 публикации
  • ICQ:
26 июля 2013 15:42

xelena

  • Группа: Главный Редактор
  • Регистрация: 19.07.2012
  • Статус: Пользователь offline
 
WHITESNAKE'87.cue
------------------------
REM GENRE Hard-rock
REM DATE 1987
PERFORMER "Whitesnake"
TITLE "Whitesnake"
FILE "WHITESNAKE side A-1.flac" WAVE
TRACK 01 AUDIO
TITLE "STILL OF THE NIGHT"
INDEX 01 00:00:00
TRACK 02 AUDIO
TITLE "BAD BOYS"
INDEX 01 06:39:00
TRACK 03 AUDIO
TITLE "GIVE ME ALL YOUR LOVE"
INDEX 01 10:41:49
TRACK 04 AUDIO
TITLE "LOOKING FOR LOVE"
INDEX 01 14:13:37
TRACK 05 AUDIO
TITLE "HERE I GO AGAIN (USA REMIX)"
INDEX 01 20:49:00
FILE "WHITESNAKE side B-1.flac" WAVE
TRACK 06 AUDIO
TITLE "CRYING IN THE RAIN"
INDEX 01 00:00:00
TRACK 07 AUDIO
TITLE "IS THIS LOVE"
INDEX 01 05:40:58
TRACK 08 AUDIO
TITLE "STRAIGHT FOR THE HEART"
INDEX 01 10:19:38
TRACK 09 AUDIO
TITLE "DON'T TURN AWAY"
INDEX 01 14:01:30
TRACK 10 AUDIO
TITLE "CHILDREN OF THE NIGHT"
INDEX 01 19:14:37

Информация
Посетители, находящиеся в группе Гости, не могут оставлять комментарии к данной публикации.