» » RAINBOW (1989)

 
 
 

RAINBOW (1989)

Автор: Ollleg от 20-07-2013, 23:26, посмотрело: 3676

1
Vinyl-Rip by Ollleg



RAINBOW (1989)



Название:
RAINBOW

Исполнитель:
RAINBOW

Жанр: Hard-rock
Год выпуска: 1989
Количество композиций: 9
Фирма: Мелодия
Номер по каталогу: С60 27023 005
Формат: mp3 + lossless
Качество: cbr 320 kbps + flac 24 bit/96 kHz + flac 16 bit/44 kHx
Размер файла: 107 mb + 307 mb + 972 mb

Предпрослушивание: lp,mp3-320


Список композиций:
Сторона 1
01- ЧЕЛОВЕК НА СЕРЕБРЯНОЙ ГОРЕ
Man on the silver mountain ( Blackmore - Dio)
02- Я ВСЁ ЕЩЁ ГРУСТЕН
записи 1975г.
Still l'm sad (Samwell - Smith - Mc.Carty - Dio)
03- ДА ЗДРАВСТВУЕТ РОК-Н-РОЛЛ
Long live rock'n'roll (Blacmore - Dio)
запись 1978г.
04- ВСЮ НОЧЬ
All night long (Blacmore - Dio)
запись 1979г.
05- ХОЛОДНЫЙ, КАК КАМЕНЬ
Stone cold (Blacmore - Dio)
запись 1982г.

Сторона 2
06- ЕСЛИ ВАМ НЕ НРАВИТСЯ РОК-Н-РОЛЛ
If uou don't like rock'n'roll (Blacmore - Dio)
запись 1975г.
07- ЗВЕЗДОЧЁТ
Stargazer (Blacmore - Dio)
запись 1976г.
08- БОРЕЦ ЗА СВОБОДУ
Freedom fighter (Blacmore - Glover - Dio)
09- Я СДАЮСЬ
I surrender (Ballard)
записи 1981г.







СUE для релиза под спойлером
*любезно предоставил посетитель XELENA :



Скачать RAINBOW (1975-82) :
Внимание! У вас нет прав для просмотра скрытого текста.


Релиз понравился ? Скажи автору спасибо !

Теги: RAINBOW (1989)

Категория: Vinyl Rip, Rock, Art-rock, Hard-rock

Уважаемый посетитель, Вы зашли на сайт как незарегистрированный пользователь.
Мы рекомендуем Вам зарегистрироваться либо войти на сайт под своим именем.
<
  • 557 комментариев
  • 102 публикации
  • ICQ:
26 июля 2013 16:02

xelena

  • Группа: ГЛАВНЫЙ РЕДАКТОР
  • Регистрация: 19.07.2012
  • Статус: Пользователь offline
 
Da, khoroshiy sbornik napechatali v sovke. Spasibo!
RAINBOW - 1989 - RAINBOW (1975-1982).cue
------------------------------------------------------
REM GENRE Hard-rock
REM DATE 1989
PERFORMER "Rainbow"
TITLE "Ансамбль Rainbow"
FILE "RAINBOW 1975-82 side A-1.flac" WAVE
TRACK 01 AUDIO
TITLE "Man On The Silver Mountain - Человек на серебряной горе"
INDEX 01 00:00:00
TRACK 02 AUDIO
TITLE "Still I'm Sad - Я все еще грустен"
INDEX 01 04:41:00
TRACK 03 AUDIO
TITLE "Long Live Rock'n'Roll - Да здравствует рок-н-ролл"
INDEX 01 08:36:30
TRACK 04 AUDIO
TITLE "All Night Long - Всю ночь"
INDEX 01 13:01:07
TRACK 05 AUDIO
TITLE "Stone Cold - Холодный, как камень"
INDEX 01 16:54:74
FILE "RAINBOW 1975-82 side B-1.flac" WAVE
TRACK 06 AUDIO
TITLE "If You Don't Like Rock'n'Roll - Если вам не нравится рок-н-ролл"
INDEX 01 00:00:00
TRACK 07 AUDIO
TITLE "Stargazer - Звездочет"
INDEX 01 02:39:52
TRACK 08 AUDIO
TITLE "Freedom Fighter - Борец за свободу"
INDEX 01 11:03:00
TRACK 09 AUDIO
TITLE "I Surrender - Я сдаюсь"
INDEX 01 15:26:38

Izvinite luidi dobrie opiat' oshiblas' v kopirovanii imen failov,.
nizhe ispravlenniy variant:
---------------------------------
REM GENRE Hard-rock
REM DATE 1989
PERFORMER "Rainbow"
TITLE "Ансамбль Rainbow"
FILE "RAINBOW 1975-82 side A-1.flac" WAVE
TRACK 01 AUDIO
TITLE "Man On The Silver Mountain - Человек на серебряной горе"
INDEX 01 00:00:00
TRACK 02 AUDIO
TITLE "Still I'm Sad - Я все еще грустен"
INDEX 01 04:41:00
TRACK 03 AUDIO
TITLE "Long Live Rock'n'Roll - Да здравствует рок-н-ролл"
INDEX 01 08:36:30
TRACK 04 AUDIO
TITLE "All Night Long - Всю ночь"
INDEX 01 13:01:07
TRACK 05 AUDIO
TITLE "Stone Cold - Холодный, как камень"
INDEX 01 16:54:74
FILE "RAINBOW 1975-82 side B-1.flac" WAVE
TRACK 06 AUDIO
TITLE "If You Don't Like Rock'n'Roll - Если вам не нравится рок-н-ролл"
INDEX 01 00:00:00
TRACK 07 AUDIO
TITLE "Stargazer - Звездочет"
INDEX 01 02:39:52
TRACK 08 AUDIO
TITLE "Freedom Fighter - Борец за свободу"
INDEX 01 11:03:00
TRACK 09 AUDIO
TITLE "I Surrender - Я сдаюсь"
INDEX 01 15:26:38

Информация
Посетители, находящиеся в группе Гости, не могут оставлять комментарии к данной публикации.