» » SCORPIONS - Best of Scorpions (1974-77)

 
 
 

SCORPIONS - Best of Scorpions (1974-77)

Автор: Ollleg от 20-07-2013, 11:04, посмотрело: 2634

1
Vinyl-Rip by Ollleg



SCORPIONS - Best of Scorpions (1974-77)



Название:
Best of Scorpions

Исполнитель:
SCORPIONS

Жанр: Hard-rock, Heavy Metal
Год выпуска: 1974-77
Количество композиций: 11
Фирма: RCA
BMG Records ARIOLA
Номер по каталогу: NL74006
Формат: mp3 + lossless
Качество: cbr 320 kbps + flac 24 bit/96 kHz + flac 16 bit/44 kHz
Размер файла: 97 mb + 299 mb + 950 mb

Предпрослушивание: lp,mp3-320


Список композиций:
Side 1
Steamrock Fever
Pictured Live
Robot Man
Backstage Queen
Speedy's Coming
Hell-Cat

Side 2
He's A Woman - She's A Man
In Trance
Dark Lady
The Sails Of Charon
Virgin Killer







СUE для релиза под спойлером
*любезно предоставил посетитель XELENA :



Скачать SCORPIONS - Best of Scorpions (1974-77) :
Внимание! У вас нет прав для просмотра скрытого текста.


Релиз понравился ? Скажи автору спасибо !

Категория: Vinyl Rip, Rock, Art-rock, Hard-rock

Уважаемый посетитель, Вы зашли на сайт как незарегистрированный пользователь.
Мы рекомендуем Вам зарегистрироваться либо войти на сайт под своим именем.
<
  • 510 комментариев
  • 104 публикации
  • ICQ:
26 июля 2013 12:56

xelena

  • Группа: Главный Редактор
  • Регистрация: 19.07.2012
  • Статус: Пользователь offline
 
BEST OF SCORPIONS vinyl-rip.cue
----------------------------------------
REM GENRE Rock
REM DATE 1979
PERFORMER "Scorpions"
TITLE "Best Of Scorpions"
FILE "BEST of SCORPIONS vol1 side A-1.flac" WAVE
TRACK 01 AUDIO
TITLE "Steamrock Fever"
INDEX 01 00:00:00
TRACK 02 AUDIO
TITLE "Pictured Life"
INDEX 01 03:39:60
TRACK 03 AUDIO
TITLE "Robot Man"
INDEX 01 07:05:37
TRACK 04 AUDIO
TITLE "Backstage Queen"
INDEX 01 09:52:28
TRACK 05 AUDIO
TITLE "Speedy's Coming"
INDEX 01 13:00:22
TRACK 06 AUDIO
TITLE "Hell Cat"
INDEX 01 16:38:71
FILE "BEST of SCORPIONS vol1 side B-1.flac" WAVE
TRACK 07 AUDIO
TITLE "He's A Woman, She's A Man"
INDEX 01 00:00:00
TRACK 08 AUDIO
TITLE "In Trance"
INDEX 01 03:18:02
TRACK 09 AUDIO
TITLE "Dark Lady"
INDEX 01 07:58:74
TRACK 10 AUDIO
TITLE "The Sails Of Charon"
INDEX 01 11:29:74
TRACK 11 AUDIO
TITLE "Virgin Killer"
INDEX 01 15:54:45

Информация
Посетители, находящиеся в группе Гости, не могут оставлять комментарии к данной публикации.