» » SCORPIONS - Best of Scorpions vol 2 (1984)

 
 
 

SCORPIONS - Best of Scorpions vol 2 (1984)

Автор: Ollleg от 20-07-2013, 01:18, посмотрело: 3628

2
Vinyl-Rip by Ollleg



SCORPIONS - Best of Scorpions vol 2 (1984)




Название:
Best of Scorpions vol 2

Исполнитель:
SCORPIONS

Жанр: Hard-rock, Heavy Metal
Год выпуска: 1984
Количество композиций: 10
Фирма: RCA
BMG Records ARIOLA
Номер по каталогу: NL 74517
Формат: mp3 + lossless
Качество: cbr 320 kbps + flac 24 bit/96 kHz + flac 16 bit/44 kHz
Размер файла: 107 mb + 313 mb + 985 mb

Предпрослушивание: lp,mp3-320

Список композиций:
SIDE A
TOP OF THE BILL
THEY NEED A MILLION
LONGING FOR FIRE
CATCH YOUR TRAIN
SPEEDY'S COMING (LIVE)
CRYING DAYS

SIDE B
ALL NIGHT LONG (LIVE)
THIS IS MY SONG
SUN IN MY HAND
WE'LLBURN THE SKY (LIVE)

1974-78

Внимание! У вас нет прав для просмотра скрытого текста.




Внимание! У вас нет прав для просмотра скрытого текста.


СUE для релиза под спойлером
*любезно предоставил посетитель XELENA :



Скачать SCORPIONS - Best of Scorpions vol 2 (1984) :
Внимание! У вас нет прав для просмотра скрытого текста.


Релиз понравился ? Скажи автору спасибо !

Категория: Vinyl Rip, Rock, Art-rock, Hard-rock

Уважаемый посетитель, Вы зашли на сайт как незарегистрированный пользователь.
Мы рекомендуем Вам зарегистрироваться либо войти на сайт под своим именем.
<
  • 509 комментариев
  • 104 публикации
  • ICQ:
26 июля 2013 12:17

xelena

  • Группа: Главный Редактор
  • Регистрация: 19.07.2012
  • Статус: Пользователь offline
 
BEST of SCORPIONS vol2.cue
-----------------------------------
REM GENRE Rock
REM DATE 1984
PERFORMER "Scorpions"
TITLE "Best Of Scorpions, Vol. 2"
FILE "BEST of SCORPIONS vol2 side A-1.flac" WAVE
TRACK 01 AUDIO
TITLE "Top Of The Bill"
INDEX 01 00:00:00
TRACK 02 AUDIO
TITLE "They Need A Million"
INDEX 01 03:28:38
TRACK 03 AUDIO
TITLE "Longing For Fire"
INDEX 01 08:22:46
TRACK 04 AUDIO
TITLE "Catch Your Train"
INDEX 01 11:09:38
TRACK 05 AUDIO
TITLE "Speedy's Coming (Live)"
INDEX 01 14:46:37
TRACK 06 AUDIO
TITLE "Crying Days"
INDEX 01 18:29:67
FILE "BEST of SCORPIONS vol2 side B-1.flac" WAVE
TRACK 07 AUDIO
TITLE "All Night Long (Live)"
INDEX 01 00:00:00
TRACK 08 AUDIO
TITLE "This Is My Song"
INDEX 01 03:14:73
TRACK 09 AUDIO
TITLE "Sun In My Hand"
INDEX 01 07:31:15
TRACK 10 AUDIO
TITLE "We'll Burn The Sky"
INDEX 01 11:57:00

<
  • 1518 комментариев
  • 698 публикаций
  • ICQ:
26 июля 2013 12:42

Ollleg

  • Группа: Vizitor
  • Регистрация: 14.07.2012
  • Статус: Пользователь offline
 
XELENA Спасибо! smile-29

Информация
Посетители, находящиеся в группе Гости, не могут оставлять комментарии к данной публикации.