» » DIO - The Last in Line (1984)

 
 
 

DIO - The Last in Line (1984)

Автор: Ollleg от 19-07-2013, 17:45, посмотрело: 1798

1
Vinyl-Rip by Ollleg



DIO - The Last in Line (1984)



Название:
The Last in Line

Исполнитель:
DIO

Жанр: Hard-rock, Heavy Metal
Год выпуска: 1984
Количество композиций: 9
Фирма: Balkanton
Номер по каталогу: BTA 12408
Формат: mp3 + lossless
Качество: cbr 320 kbps + flac 24 bit/96 kHz + flac 16 bit/44 kHz
Размер файла: 104 mb + 307 mb + 979 mb

Предпрослушивание: lp,mp3-320


Список композиций:
Side one:
01- WE ROCK
02- THE LAST IN LINE
03- BREATHLESS
04- I SPEED AT NIGHT
05- ONE NIGHT IN THE CITY

Side two:
06- EVIL EYES
07- MYSTERY
08- EAT YOUR HEARC OUT
09- EGYPT ( THE CHAINS ARE ON)







СUE для релиза под спойлером
*любезно предоставил посетитель XELENA :



Скачать DIO - The Last in Line (1984) :
Внимание! У вас нет прав для просмотра скрытого текста.


Релиз понравился ? Скажи автору спасибо !

Категория: Vinyl Rip, Rock, Art-rock, Hard-rock

Уважаемый посетитель, Вы зашли на сайт как незарегистрированный пользователь.
Мы рекомендуем Вам зарегистрироваться либо войти на сайт под своим именем.
<
  • 510 комментариев
  • 104 публикации
  • ICQ:
26 июля 2013 12:05

xelena

  • Группа: Главный Редактор
  • Регистрация: 19.07.2012
  • Статус: Пользователь offline
 
Khoroshiy bil muzikant!
R.I.P. DIO...
----------------------
DIO - The Last in Line.cue
----------------------
REM GENRE Rock
REM DATE 1984
PERFORMER "Dio"
TITLE "The Last In Line"
FILE "DIO side A-1.flac" WAVE
TRACK 01 AUDIO
TITLE "We Rock / Ние Танцуваме Рок"
INDEX 01 00:00:00
TRACK 02 AUDIO
TITLE "The Last In Line / Последен Поред"
INDEX 01 04:29:03
TRACK 03 AUDIO
TITLE "Breathless / Без Дъх"
INDEX 01 10:21:72
TRACK 04 AUDIO
TITLE "I Speed At Night / Бързам В Нощта"
INDEX 01 14:33:53
TRACK 05 AUDIO
TITLE "One Night In The City / Една Нощ В Града"
INDEX 01 18:02:11
FILE "DIO side B-1.flac" WAVE
TRACK 06 AUDIO
TITLE "Evil Eyes / Лоши Очи"
INDEX 01 00:00:00
TRACK 07 AUDIO
TITLE "Mystery / Загадка"
INDEX 01 03:43:19
TRACK 08 AUDIO
TITLE "Eat Your Heart Out / Изяж Се От Мъка"
INDEX 01 07:46:53
TRACK 09 AUDIO
TITLE "Egypt (The Chains Are On) / Египет (В Окови)"
INDEX 01 11:42:36

Информация
Посетители, находящиеся в группе Гости, не могут оставлять комментарии к данной публикации.