» » Georgie Fame - Georgie Does His Thing With Strings (1969)

 
 
 

Georgie Fame - Georgie Does His Thing With Strings (1969)

Автор: Ollleg от 16-07-2013, 11:38, посмотрело: 1316

1
Vinyl-Rip by Ollleg



Georgie Fame -  Georgie Does His Thing With Strings (1969)



Название:
Georgie Does His Thing With Strings

Исполнитель:
GEORGIE FAME

Жанр: Jazz, Blues, Soul, pop
Год выпуска: 1969
Количество композиций: 12
Фирма: Nagranie C.B.S. London , made in Poland
Номер по каталогу: XL 0993; SXL 0993
Формат: mp3 + lossless
Качество: cbr 320 kbps + flac 24 bit/96 kHz
Размер файла: 93 mb + 789 mb

Предпрослушивание: lp,mp3-320


Список композиций:
Side one:
1.AND I LOVE HER
(J.Lennon, P.McCartney)
2.MAYBE IN THE SPRING AGAIN
(J.Lacey, J.Alexander Ryan)
3.IN THE WEE SMALL HOURS (of the morning)
(D.Mann, B.Hilliard)
4.WHAT'S NEW?
(Bob Haggart, J.Burke)
5.WOE IS ME
(P.Smythe, J.Alexander Ryan)
6.A HOUSE IS NOT A HOME
(B.Bacharach, H.David)

Side two:
7.THIS GUY'S IN LOVE WITH YOU
(B.Bacharach, H.David)
8.GIRL TALK
(N.Hefti, B.Troup)
9.WHO'S KISSING YOU BLUES
(G.Fame, Gess Ryan)
10.EVERYTHING HAPPENS TO ME
(M.Dennis, T.Adair)
11.GUESS WHO I SAW TODAY
(M.Grand, E.Boyd)
12.NEED YOYR LOVE SO BAD
(Little Wille John)









СUE для релиза под спойлером
*любезно предоставил посетитель XELENA :



Скачать Georgie Fame - Georgie Does His Thing With Strings (1969) :
Внимание! У вас нет прав для просмотра скрытого текста.


Релиз понравился ? Скажи автору спасибо !

Категория: Vinyl Rip, pop muzic, Jazz, Blues, Soul

Уважаемый посетитель, Вы зашли на сайт как незарегистрированный пользователь.
Мы рекомендуем Вам зарегистрироваться либо войти на сайт под своим именем.
<
  • 509 комментариев
  • 104 публикации
  • ICQ:
18 июля 2013 19:51

xelena

  • Группа: Главный Редактор
  • Регистрация: 19.07.2012
  • Статус: Пользователь offline
 
Da eto zhe raitet! Genial'nyi Britanets! Spasibo! Spasibo! Spasibo!
Georgie Fame - Georgie Does His Thing With Strings.cue
----------------------
REM GENRE Jazz, Blues, Soul, pop
REM DATE 1969
PERFORMER "Georgie Fame"
TITLE "Georgie Does His Thing With Strings"
FILE "GEORGIE FAME side A.-1.flac" WAVE
TRACK 01 AUDIO
TITLE "AND I LOVE HER"
INDEX 01 00:00:00
TRACK 02 AUDIO
TITLE "MAYBE IN THE SPRING AGAIN"
INDEX 01 03:23:00
TRACK 03 AUDIO
TITLE "IN THE WEE SMALL HOURS (of the morning)"
INDEX 01 05:52:45
TRACK 04 AUDIO
TITLE "WHAT'S NEW?"
INDEX 01 08:25:37
TRACK 05 AUDIO
TITLE "WOE IS ME"
INDEX 01 11:50:20
TRACK 06 AUDIO
TITLE "A HOUSE IS NOT A HOME"
INDEX 01 14:30:37
FILE "GEORGIE FAME side B-1.flac" WAVE
TRACK 07 AUDIO
TITLE "THIS GUY'S IN LOVE WITH YOU"
INDEX 01 00:00:00
TRACK 08 AUDIO
TITLE "GIRL TALK"
INDEX 01 03:58:64
TRACK 09 AUDIO
TITLE "WHO'S KISSING YOU BLUES"
INDEX 01 07:37:37
TRACK 10 AUDIO
TITLE "EVERYTHING HAPPENS TO ME"
INDEX 01 10:51:74
TRACK 11 AUDIO
TITLE "GUESS WHO I SAW TODAY"
INDEX 01 14:37:37
TRACK 12 AUDIO
TITLE "NEED YOUR LOVE SO BAD"
INDEX 01 17:36:00

Информация
Посетители, находящиеся в группе Гости, не могут оставлять комментарии к данной публикации.