» » Из истории джаза - Оркестр под управлением Пола Уайтмена (1980)

 
 
 

Из истории джаза - Оркестр под управлением Пола Уайтмена (1980)

Автор: Ollleg от 15-07-2013, 20:55, посмотрело: 2673

1
Vinyl-Rip by Ollleg



Из истории джаза - Оркестр под управлением Пола Уайтмена (1980)




Название:
Из истории джаза - Оркестр под управлением Пола Уайтмена
(архивные записи)

Исполнитель:
Оркестр под управлением Пола Уайтмена


Жанр: Jazz
Год выпуска: 1980
Количество композиций: 13
Фирма: Мелодия
Номер по каталогу: М60-41643-4
Формат: mp3 + lossless
Качество: cbr 320 kbps + flac 24 bit/96 kHz
Размер файла: 109 mb + 867 mb

Предпрослушивание: lp,mp3-320


Список композиций:

1 сторона:
01-НОВЫЙ ТИГРОВЫЙ РЭГ (Н.Ла Рокка)
02-Я ВИДЕЛА ЗВЁЗДЫ (Сиглер, Гудхарт)
03-БЫСТРЫЕ НОГИ (Милтон, Эйджер)
04-ЛУИЗА (Уайтинг, Робинс)
05-СЭН (Макфейл, Майклз)
06-ЭТО НЕ ТАК, ДОРОГАЯ (Робинсон)
07-СКАМЕЙКА В ПАРКЕ (Милтон, Эйджер)

2 сторона:
08-ПРОГУЛКА ПОД ЛУНОЙ (Шэй, Тобиас, Джером)
09-ГРЁЗЫ ЛЮБВИ (обработка Баджи)
10-МОЛОДАЯ ТРАВА (Р.Нобл)
11-НИНОН (Б.Кейпер, У.Джорман)
12-ИВА,НЕ ПЛАЧЬ ПО МНЕ (Ронелл)
13-ФАНТАЗИЯ НА ТЕМЫ ПОПУЛЯРНЫХ МЕЛОДИЙ (группа авторов)

Архивные записи









СUE для релиза под спойлером
*любезно предоставил посетитель XELENA :



Скачать Оркестр под управлением Пола Уайтмена :
Внимание! У вас нет прав для просмотра скрытого текста.


Релиз понравился ? Скажи автору спасибо !

Категория: Vinyl Rip, Instrumental,Orchestra, Jazz, Blues, Soul

Уважаемый посетитель, Вы зашли на сайт как незарегистрированный пользователь.
Мы рекомендуем Вам зарегистрироваться либо войти на сайт под своим именем.
<
  • 509 комментариев
  • 104 публикации
  • ICQ:
18 июля 2013 21:10

xelena

  • Группа: Главный Редактор
  • Регистрация: 19.07.2012
  • Статус: Пользователь offline
 
... i sochiniali i ispolnaly tak krasivo... grand merci!
Оркестр под управлением Пола Уайтмена - Из истории джаза.cue
-------------------------------
REM GENRE Jazz
REM DATE 1980
PERFORMER "Оркестр под управлением Пола Уайтмена"
TITLE "Из Истории Джаза"
FILE "Оркестр П.Уайтмена Side А-1.flac" WAVE
TRACK 01 AUDIO
TITLE "Новый Тигровый Рэг"
INDEX 01 00:00:00
TRACK 02 AUDIO
TITLE "Я Видела Звезды"
INDEX 01 03:25:00
TRACK 03 AUDIO
TITLE "Быстрые Ноги"
INDEX 01 06:45:73
TRACK 04 AUDIO
TITLE "Луиза"
INDEX 01 09:49:74
TRACK 05 AUDIO
TITLE "Сэн"
INDEX 01 13:17:37
TRACK 06 AUDIO
TITLE "Это Не Так, Дорогая"
INDEX 01 16:44:00
TRACK 07 AUDIO
TITLE "Скамейка В Парке"
INDEX 01 19:37:00
FILE "Оркестр П.Уайтмена Side B-1.flac" WAVE
TRACK 08 AUDIO
TITLE "Прогулка Под луной"
INDEX 01 00:00:00
TRACK 09 AUDIO
TITLE "Грезы Любви"
INDEX 01 03:15:38
TRACK 10 AUDIO
TITLE "Молодая Трава"
INDEX 01 07:02:00
TRACK 11 AUDIO
TITLE "Нинон"
INDEX 01 09:54:00
TRACK 12 AUDIO
TITLE "Ива, Не Плачь По Мне"
INDEX 01 13:01:00
TRACK 13 AUDIO
TITLE "Фантазия На Темы Популярных Мелодий"
INDEX 01 16:35:39

Информация
Посетители, находящиеся в группе Гости, не могут оставлять комментарии к данной публикации.