» » ВИА София - София (1978)

 
 
 

ВИА София - София (1978)

Автор: Ollleg от 13-07-2013, 12:15, посмотрело: 3517

1
Vinyl-Rip by Ollleg



ВИА София - София (1978)



Название:
София

Исполнитель:
ВИА София

Жанр: Jazz, Rock, Советская эстрада
Год выпуска: 1978
Количество композиций: 12
Фирма: Мелодия
Номер по каталогу: С60 07385-86
Формат: mp3 + lossless
Качество: cbr 320 kbps + flac 24 bit/96 kHz
Размер файла: 102 mb + 825 mb

Предпрослушивание: lp,mp3-320


Список композиций:
1-я Сторона:
01.Кунг-Фу (К.Деглас) (на англ. яз.)
02.Все в любви (С.Уондер) (на англ. яз.)
03.Большой ритм (К.Сантана)
04.Вкус меда (С.Дэн) – Е.Душанов (на англ. яз.)
05.Музыкальный этюд (О.Джейс – Р.Дуглас) (на англ. яз.)
06.Маленькая серенада (Д.Томас – Д.Баргерон)

2-я Сторона:
07.Белый голубь (Д.Бейкер- болг. текст М.Спасова) – Х.Кидиков
08.Один миг (Джонсон - болг. текст М.Спасова) – Е.Душанов
09.Лола (Д.Новкович – болг. т. Д.Домянова) – Б.Киркоров
10.Болгария (Т.Димчев – Г.Струмски) – Е.Душанов
11.Там, где разбились волны (А.Михайлов – П.Кюн, болг. т. Б.Киркорова) – Б.Киркоров
12.Последнее танго (исп. нар. песня, обр. Р.Начкова, болг. т. Д.Ценова) – Х.Кидиков

Худ.рук. Димитр Симеонов
Солисты:
Х.Кидиков (7,12)
Е.Душанов (8,10)
Б.Киркоров (9,11)







СUE для релиза под спойлером
*любезно предоставил посетитель XELENA :



Скачать ВИА София - София (1978) :
Внимание! У вас нет прав для просмотра скрытого текста.


Релиз понравился ? Скажи автору спасибо !

Категория: Vinyl Rip, СОВЕТСКАЯ ЭСТРАДА, pop muzic

Уважаемый посетитель, Вы зашли на сайт как незарегистрированный пользователь.
Мы рекомендуем Вам зарегистрироваться либо войти на сайт под своим именем.
<
  • 509 комментариев
  • 104 публикации
  • ICQ:
18 июля 2013 16:55

xelena

  • Группа: Главный Редактор
  • Регистрация: 19.07.2012
  • Статус: Пользователь offline
 
Thanks for bringing this up! All the best!
ВИА София - София.cue
-------
REM GENRE Jazz, Rock, Советская эстрада
REM DATE 1978
PERFORMER "ВИА София"
TITLE "София"
FILE "VIA Sofia 1978 Side A-1.flac" WAVE
TRACK 01 AUDIO
TITLE "Кунг-Фу"
INDEX 01 00:00:00
TRACK 02 AUDIO
TITLE "Все в любви"
INDEX 01 03:08:07
TRACK 03 AUDIO
TITLE "Большой ритм"
INDEX 01 06:23:56
TRACK 04 AUDIO
TITLE "Вкус меда"
INDEX 01 08:59:11
TRACK 05 AUDIO
TITLE "Музыкальный этюд"
INDEX 01 12:07:38
TRACK 06 AUDIO
TITLE "Маленькая серенада"
INDEX 01 15:14:38
FILE "VIA Sofia 1978 Side B-1.flac" WAVE
TRACK 07 AUDIO
TITLE "Белый голубь"
INDEX 01 00:00:00
TRACK 08 AUDIO
TITLE "Один миг"
INDEX 01 03:20:32
TRACK 09 AUDIO
TITLE "Лола"
INDEX 01 06:41:68
TRACK 10 AUDIO
TITLE "Болгария"
INDEX 01 09:39:15
TRACK 11 AUDIO
TITLE "Там, где разбились волны"
INDEX 01 13:11:37
TRACK 12 AUDIO
TITLE "Последнее танго"
INDEX 01 17:38:00

Информация
Посетители, находящиеся в группе Гости, не могут оставлять комментарии к данной публикации.