» » Весёлые ребята - Любовь-огромная страна (1974)

 
 
 

Весёлые ребята - Любовь-огромная страна (1974)

Автор: Ollleg от 12-07-2013, 22:10, посмотрело: 11045

3
LP



Весёлые ребята - Любовь-огромная страна (1974)

Весёлые ребята - Любовь-огромная страна (1974)



Название:
Любовь-огромная страна

Исполнитель:
Весёлые ребята

Жанр: Pop, Советская эстрада
Год выпуска: 1974
Количество композиций: 11
Фирма: Мелодия
Номер по каталогу: С60-05459-60
Формат: mp3 + lossless
Качество: cbr 320 kbps + flac 24 bit/96 kHz
Размер файла: 107 mb + 905 mb


Список композиций:

Первая сторона:
1.ЛЮБОВЬ - ОГРОМНАЯ СТРАНА
(Б.Рычков-Л.Дербенёв)
2.Я К ТЕБЕ НЕ ПОДОЙДУ
(Д.Тухманов-Л.Дербенёв,И.Шаферан)
3.ОТЧЕГО
(Ю.Антонов-Т.Сашко)
4.ВЕЧНАЯ ВЕСНА
(Д.Тухманов-И.Шаферан)
5.ЧТО ТАКОГО
(П.Слободкин-Л.Дербенёв)
6.ЭТО МОСКВА
(Д.Тухманов-Л.Дербенёв,И.Шаферан)

Вторая сторона:
7.НАША ПЕСНЯ
(В.Гамалия-М.Танич)
8.КАЧЕЛИ
(С.Дьячков-Л.Дербенёв)
9.А МНЕ-ТО ЗАЧЕМ
(П.Слободкин-Л.Дербенёв)
10.СКОРЫЙ ПОЕЗД
(Д.Тухманов-В.Харитонов)
11.ВСЕГДА ВДАЛИ
(Е.Адлер-Л.Дербенёв)

вокально-инструментальный ансамбль
руководитель Павел Слободкин







СUE для релиза под спойлером
*любезно предоставил посетитель XELENA :



Скачать Весёлые ребята - Любовь-огромная страна :
Внимание! У вас нет прав для просмотра скрытого текста.


Изменил: Ollleg по причине: перезалито на я-диск хранилище

Релиз понравился ? Скажи автору спасибо !

Категория: Vinyl Rip, СОВЕТСКАЯ ЭСТРАДА

Уважаемый посетитель, Вы зашли на сайт как незарегистрированный пользователь.
Мы рекомендуем Вам зарегистрироваться либо войти на сайт под своим именем.
<
  • 556 комментариев
  • 102 публикации
  • ICQ:
18 июля 2013 15:50

xelena

  • Группа: ГЛАВНЫЙ РЕДАКТОР
  • Регистрация: 19.07.2012
  • Статус: Пользователь offline
 
Za veselie blagodarstvuiu! Vsego dobrogo!
Весёлые ребята - Любовь-огромная страна.cue
---------------------------------
REM GENRE Pop, Советская эстрада
REM DATE 1974
PERFORMER "Веселые Ребята"
TITLE "Любовь - Огромная Страна"
FILE "Весёлые ребята Side A-1.flac" WAVE
TRACK 01 AUDIO
TITLE "Любовь - Огромная Страна"
INDEX 01 00:00:00
TRACK 02 AUDIO
TITLE "Я К Тебе Не Подойду"
INDEX 01 02:28:22
TRACK 03 AUDIO
TITLE "Отчего"
INDEX 01 06:30:60
TRACK 04 AUDIO
TITLE "Вечная Весна"
INDEX 01 09:45:00
TRACK 05 AUDIO
TITLE "Что Такого"
INDEX 01 13:09:45
TRACK 06 AUDIO
TITLE "Это Москва"
INDEX 01 16:36:51
FILE "Весёлые ребята Side B-1.flac" WAVE
TRACK 07 AUDIO
TITLE "Наша Песня"
INDEX 01 00:00:00
TRACK 08 AUDIO
TITLE "Качели"
INDEX 01 03:20:00
TRACK 09 AUDIO
TITLE "А Мне-то Зачем"
INDEX 01 08:13:00
TRACK 10 AUDIO
TITLE "Скорый Поезд"
INDEX 01 11:05:38
TRACK 11 AUDIO
TITLE "Всегда Вдали"
INDEX 01 14:55:38

<
  • 11 комментариев
  • 0 публикаций
  • ICQ:
16 января 2018 23:50

Viota

  • Группа: Ветеран проекта
  • Регистрация: 12.12.2017
  • Статус: Пользователь offline
 
Спасибо, с меги хоть скачивается)

<
  • 2077 комментариев
  • 832 публикации
  • ICQ:
29 июля 2020 14:24

Ollleg

  • Группа: Vizitor
  • Регистрация: 14.07.2012
  • Статус: Пользователь offline
 
перезалито на я-диск хранилище

Информация
Посетители, находящиеся в группе Гости, не могут оставлять комментарии к данной публикации.