» » Pet Shop Boys - Behaviour (1990)

 
 
 

Pet Shop Boys - Behaviour (1990)

Автор: Ollleg от 29-06-2013, 15:47, посмотрело: 3636

3
Vinyl-Rip by Ollleg



Pet Shop Boys - Behaviour (1990)



Название:
Behaviour

Исполнитель:
Pet Shop Boys

Жанр: electronic, synth pop
Год выпуска: 1990
Количество композиций: 08
Фирма: Мелодия ( BRS)
Номер по каталогу: без номера
Формат: mp3 + lossless
Качество: cbr 320 kbps + flac 16 bit/44,1 kHz + flac 24 bit/96 kHz
Размер файла: 105 mb + 295 mb + 965 mb

Предпрослушивание: lp,mp3-320


Список композиций:
Side one:
01. Being Boring
02. So Hard
03. To Face The Truth
04. How Can You Expect To Be Taken Seriously?
Side two:
05. My October Symphony
06. This Must Be The Place I Waited Years To Leave
07. Nervously
08. Jealousy







СUE для релиза под спойлером
*любезно предоставил посетитель XELENA :



Скачать Pet Shop Boys - Behaviour :
Внимание! У вас нет прав для просмотра скрытого текста.


Релиз понравился ? Скажи автору спасибо !

Категория: Vinyl Rip, synth pop

Уважаемый посетитель, Вы зашли на сайт как незарегистрированный пользователь.
Мы рекомендуем Вам зарегистрироваться либо войти на сайт под своим именем.
<
  • 557 комментариев
  • 102 публикации
  • ICQ:
30 июня 2013 22:38

xelena

  • Группа: ГЛАВНЫЙ РЕДАКТОР
  • Регистрация: 19.07.2012
  • Статус: Пользователь offline
 
Dolgozdanyi! Ogromnoe spasibo!

<
  • 557 комментариев
  • 102 публикации
  • ICQ:
11 июля 2013 11:10

xelena

  • Группа: ГЛАВНЫЙ РЕДАКТОР
  • Регистрация: 19.07.2012
  • Статус: Пользователь offline
 
REM GENRE Electronic
REM DATE 1990
PERFORMER "Pet Shop Boys"
TITLE "Behaviour"
FILE "Pet Shop Boys - Behaviour side A.flac" WAVE
TRACK 01 AUDIO
TITLE "Being Boring"
INDEX 01 00:00:00
TRACK 02 AUDIO
TITLE "So Hard"
INDEX 01 06:47:37
TRACK 03 AUDIO
TITLE "To Face The Truth"
INDEX 01 10:51:00
TRACK 04 AUDIO
TITLE "How Can You Expect To Be Taken Seriously?"
INDEX 01 16:22:38
FILE "Pet Shop Boys - Behaviour side B.flac" WAVE
TRACK 05 AUDIO
TITLE "My October Symphony"
INDEX 01 00:00:00
TRACK 06 AUDIO
TITLE "This Must Be The Place I Waited Years To Leave"
INDEX 01 05:19:37
TRACK 07 AUDIO
TITLE "Nervously"
INDEX 01 10:51:74
TRACK 08 AUDIO
TITLE "Jealousy"
INDEX 01 14:57:01

<
  • 1987 комментариев
  • 818 публикаций
  • ICQ:
11 июля 2013 23:16

Ollleg

  • Группа: Vizitor
  • Регистрация: 14.07.2012
  • Статус: Пользователь offline
 
xelena , СПАСИБО ЗА КУЙ! smile-08

Информация
Посетители, находящиеся в группе Гости, не могут оставлять комментарии к данной публикации.