» » Синяя птица - во Дворце спорта в Лужниках (1983)

 
 
 

Синяя птица - во Дворце спорта в Лужниках (1983)

Автор: Ollleg от 29-06-2013, 15:23, посмотрело: 6737

4
LP



Синяя птица - во Дворце спорта в Лужниках (1983)



Название:
во Дворце спорта в Лужниках

Исполнитель:
Синяя птица

Жанр: Pop, Советская эстрада
Год выпуска: 1983
Количество композиций: 10
Фирма: Мелодия
Номер по каталогу: С60 19851 009
Формат: mp3 + lossless
Качество: cbr 320 kbps + flac 24 bit/96 kHz
Размер файла: 102 mb + 846 mb


Список композиций:
Сторона 1:
1.Белый теплоход
(Ю.Антонов - В.Дюмин)
2.До свадьбы заживёт
(Ю.Антонов - И.Шаферан)
3.Берегите женщин
(Ю.Антонов - Л.Фадеев)
4.Подорожник
(Т.Ефимов - В.Дюнин)
5.Когда с тобой любовь
(С.Левкин - В.Гин)
Сторона 2:
6.Я иду тебе навстречу
(Ю.Антонов - В.Дюмин)
7.Цветные звуки
(Ю.Антонов - В.Харитонов)
8.Дикие лошади
(Ю.Антонов - В.Дюмин)
9.Москва
(Ю.Антонов - М.Виккерс)
10.С тобой хорошо мне
(Ю.Антонов - Л.Фадеев)

Руководители Роберт и Михаил Болотные

Игорь Шабловский - гитара соло
Дмитрий Галицкий - синтезатор, электропиано, стрингс, вокал
Сергей Левкин - акустическая гитара,вокал
Сергей Дроздов - бас-гитара, вокал
Игорь Доценко - ударные
Владимир Преображенский - вокал
Владимир Гапонов - электрогитара
Светлана Лазорева - вокал
***
Юрий Антонов,стрингс, электропиано, электроорган, бубен

Записи 1982-1983 гг.







СUE для релиза под спойлером
*любезно предоставил посетитель XELENA :



Скачать Синяя птица - во Дворце спорта в Лужниках (1983) :
Внимание! У вас нет прав для просмотра скрытого текста.


Изменил: Ollleg по причине: перезалито на я-диск хранилище

Релиз понравился ? Скажи автору спасибо !

Категория: Vinyl Rip, СОВЕТСКАЯ ЭСТРАДА, pop muzic

Уважаемый посетитель, Вы зашли на сайт как незарегистрированный пользователь.
Мы рекомендуем Вам зарегистрироваться либо войти на сайт под своим именем.
<
  • 556 комментариев
  • 102 публикации
  • ICQ:
6 июля 2013 17:54

xelena

  • Группа: ГЛАВНЫЙ РЕДАКТОР
  • Регистрация: 19.07.2012
  • Статус: Пользователь offline
 
Klass! Priatno vspomnit'! Spasibo!

<
  • 556 комментариев
  • 102 публикации
  • ICQ:
11 июля 2013 13:02

xelena

  • Группа: ГЛАВНЫЙ РЕДАКТОР
  • Регистрация: 19.07.2012
  • Статус: Пользователь offline
 
V vidu togo cho sluchaino bili izmeneni nazvania failov, pozhaluista prover'te imena obeix failov, i popravte notepad-e nizheprivedionnyi cue fayl:
--------------------------
REM GENRE Rock
REM DATE 1983
PERFORMER "Синяя Птица"
TITLE "Во Дворце Спорта В Лужниках"
FILE "Синяя Птица - во Дворце спорта в Лужниках_A.flac" WAVE
TRACK 01 AUDIO
TITLE "Белый Теплоход"
INDEX 01 00:00:00
TRACK 02 AUDIO
TITLE "До Свадьбы Заживет"
INDEX 01 03:42:37
TRACK 03 AUDIO
TITLE "Берегите Женщин"
INDEX 01 08:04:00
TRACK 04 AUDIO
TITLE "Подорожник / Когда С Тобой Любовь"
INDEX 01 12:31:00
FILE "Синяя Птица - во Дворце спорта в Лужниках_B.flac" WAVE
TRACK 05 AUDIO
TITLE "Я Иду Тебе Навстречу"
INDEX 01 00:00:00
TRACK 06 AUDIO
TITLE "Цветные Звуки"
INDEX 01 04:01:00
TRACK 07 AUDIO
TITLE "Дикие Лошади"
INDEX 01 07:47:60
TRACK 08 AUDIO
TITLE "Москва"
INDEX 01 11:14:29
TRACK 09 AUDIO
TITLE "С Тобой Хорошо Мне"
INDEX 01 14:21:30

<
  • 2065 комментариев
  • 829 публикаций
  • ICQ:
11 июля 2013 23:14

Ollleg

  • Группа: Vizitor
  • Регистрация: 14.07.2012
  • Статус: Пользователь offline
 
xelena , СПАСИБО ЗА КУЙ! smile-08

<
  • 2065 комментариев
  • 829 публикаций
  • ICQ:
29 июля 2020 14:11

Ollleg

  • Группа: Vizitor
  • Регистрация: 14.07.2012
  • Статус: Пользователь offline
 
перезалито на я-диск хранилище

Информация
Посетители, находящиеся в группе Гости, не могут оставлять комментарии к данной публикации.