» » Zodiaks - In Memoriam (1989)

 
 
 

Zodiaks - In Memoriam (1989)

Автор: Ollleg от 25-06-2013, 12:07, посмотрело: 1886

2
Vinyl-Rip by Ollleg



Zodiaks - In Memoriam (1989)




Название:
In Memoriam

Исполнитель:
Zodiaks (Зодиак)

Жанр: electronic
Год выпуска: 1989
Количество композиций: 7
Фирма: Мелодия
Номер по каталогу: C60 28301 009
Формат: mp3 + lossless
Качество: cbr 320 kbps + flac 16 bit/44,1 kHz + flac 24 bit/96 kHz
Размер файла: 92 mb + 258 mb + 838 mb

Предпрослушивание: lp,mp3-192, SIDE ONE


Список композиций:
Side One:
01 - In Memoriam (В Курземе) - 9.06
02 - Остров Морицсала - 3.53
03 - В Музее под открытым небом - 5.16
Side Two:
04 - Рундальский дворец - 3.50
05 - Дома Старой Риги - 4.32
06 - Пастораль - 3.31
07 - На горе Зилайскалнс - 5.20







СUE для релиза под спойлером
*любезно предоставил посетитель XELENA :



Скачать Zodiaks - In Memoriam (1989) :
Внимание! У вас нет прав для просмотра скрытого текста.


Релиз понравился ? Скажи автору спасибо !

Категория: Vinyl Rip, Instrumental,Orchestra, Electronic

Уважаемый посетитель, Вы зашли на сайт как незарегистрированный пользователь.
Мы рекомендуем Вам зарегистрироваться либо войти на сайт под своим именем.
<
  • 509 комментариев
  • 104 публикации
  • ICQ:
11 июля 2013 11:12

xelena

  • Группа: Главный Редактор
  • Регистрация: 19.07.2012
  • Статус: Пользователь offline
 
REM GENRE Electronic
REM DATE 1989
PERFORMER "Zodiaks"
TITLE "In Memoriam"
FILE "Zodiak in memoriam 1989 side A.flac" WAVE
TRACK 01 AUDIO
TITLE "In Memoriam. В Курземе"
INDEX 01 00:00:00
TRACK 02 AUDIO
TITLE "Остров Морицсала"
INDEX 01 09:12:74
TRACK 03 AUDIO
TITLE "В Музее Под Открытым Небом"
INDEX 01 13:13:74
FILE "Zodiak in memoriam 1989 side B.flac" WAVE
TRACK 04 AUDIO
TITLE "Рундальский Дворец"
INDEX 01 00:00:00
TRACK 05 AUDIO
TITLE "Дома Старой Риги"
INDEX 01 03:57:38
TRACK 06 AUDIO
TITLE "Пастораль"
INDEX 01 08:39:70
TRACK 07 AUDIO
TITLE "На Горе Зилайскалис"
INDEX 01 12:15:02

<
  • 1527 комментариев
  • 699 публикаций
  • ICQ:
11 июля 2013 23:15

Ollleg

  • Группа: Vizitor
  • Регистрация: 14.07.2012
  • Статус: Пользователь offline
 
xelena , СПАСИБО ЗА КУЙ! smile-08

Информация
Посетители, находящиеся в группе Гости, не могут оставлять комментарии к данной публикации.