» » Пикник - Иероглиф (1987)

 
 
 

Пикник - Иероглиф (1987)

Автор: Ollleg от 24-06-2013, 01:00, посмотрело: 2485

3
Vinyl-Rip by Ollleg



Пикник - Иероглиф (1987)



Название:
Иероглиф

Исполнитель:
Пикник

Жанр: Rock
Год выпуска: 1987
Количество композиций: 8
Фирма: Мелодия
Номер по каталогу: С60 25987 002
Формат: mp3 + lossless
Качество: cbr 320 kbps + flac 16 bit/44,1 kHz + flac 24 bit/96 kHz
Размер файла: 100 mb + 236 mb + 789 mb

Предпрослушивание: lp,mp3-192, SIDE ONE


Список композиций:
Сторона А:
01. Остров
02. Иероглиф
03. Праздник
04. Ты вся из огня
Сторона В:
05. Ночь
06. Телефон
07. Пикник
08. Великан







СUE для релиза под спойлером
*любезно предоставил посетитель XELENA :



Скачать Пикник - Иероглиф (1987) :
Внимание! У вас нет прав для просмотра скрытого текста.


Релиз понравился ? Скажи автору спасибо !

Категория: Vinyl Rip, Rock, Art-rock, Hard-rock

Уважаемый посетитель, Вы зашли на сайт как незарегистрированный пользователь.
Мы рекомендуем Вам зарегистрироваться либо войти на сайт под своим именем.
<
  • 1518 комментариев
  • 697 публикаций
  • ICQ:
24 июня 2013 14:58

Ollleg

  • Группа: Vizitor
  • Регистрация: 14.07.2012
  • Статус: Пользователь offline
 
На нашем сайте уже имеется оцифровка группы Пикник от ZepLed (Георгия), посмотреть и скачать её можно ЗДЕСЬ (нажать), предлагаю ещё свой вариант оцифровки этого интересного состава.
smile-33

<
  • 509 комментариев
  • 104 публикации
  • ICQ:
11 июля 2013 11:09

xelena

  • Группа: Главный Редактор
  • Регистрация: 19.07.2012
  • Статус: Пользователь offline
 
vnizu privozhu "Пикник - Иероглиф 1987.cue" fail dlia proigryvania v pleierax:
-------------
REM GENRE Rock
REM DATE 1987
PERFORMER "Пикник"
TITLE "Иероглиф"
FILE "Пикник - Иероглиф 1987 side A.flac" WAVE
TRACK 01 AUDIO
TITLE "Остров"
INDEX 01 00:00:00
TRACK 02 AUDIO
TITLE "Иероглиф"
INDEX 01 04:58:68
TRACK 03 AUDIO
TITLE "Праздник"
INDEX 01 10:45:00
TRACK 04 AUDIO
TITLE "Ты Вся Из Огня"
INDEX 01 15:21:38
FILE "Пикник - Иероглиф 1987 side B.flac" WAVE
TRACK 05 AUDIO
TITLE "Ночь"
INDEX 01 00:00:00
TRACK 06 AUDIO
TITLE "Телефон"
INDEX 01 05:50:38
TRACK 07 AUDIO
TITLE "Пикник"
INDEX 01 10:55:00
TRACK 08 AUDIO
TITLE "Великан"
INDEX 01 15:15:02

<
  • 1518 комментариев
  • 697 публикаций
  • ICQ:
11 июля 2013 23:16

Ollleg

  • Группа: Vizitor
  • Регистрация: 14.07.2012
  • Статус: Пользователь offline
 
xelena , СПАСИБО ЗА КУЙ! smile-08

Информация
Посетители, находящиеся в группе Гости, не могут оставлять комментарии к данной публикации.