» » Kim Wilde - Another step (1986)

 
 
 

Kim Wilde - Another step (1986)

Автор: Ollleg от 23-06-2013, 00:16, посмотрело: 1291

3
Vinyl-Rip by Ollleg



Kim Wilde - Another step (1986)




Название: Another step
Исполнитель: Kim Wilde
Жанр: Pop
Год выпуска: 1986
Количество композиций: 12
Фирма: MCA RECORDS
Номер по каталогу: MCA-5903 (MCA6232)
Формат: mp3 + flac
Качество: cbr 320 kbps + lossless 16 bit/44KHz + lossless 24 bit/96 kHz
Размер файла: 124 mb + 339 mb + 1,07 GB

Предпрослушка: mp3 vbr 192 kbps


Список композиций:
side one:
01. You Keep Me Hangin' On
02. Hit Him
03. Another Step (Closer To You)
04. The Thrill Of It
05. I've Got So Much Love
side two:
06. Schoolgirl
07. Say You Really Want Me
08. She Hasn't Got Time For You
09. Brothers
10. Missing
11. How Do You Want My Love
12. Don't Say Nothing's Changed







СUE для релиза под спойлером
*любезно предоставил посетитель XELENA :



Скачать Kim Wilde - Another step (1986),:
Внимание! У вас нет прав для просмотра скрытого текста.

Релиз понравился ? Скажи автору спасибо !

Категория: Vinyl Rip, pop muzic

Уважаемый посетитель, Вы зашли на сайт как незарегистрированный пользователь.
Мы рекомендуем Вам зарегистрироваться либо войти на сайт под своим именем.
<
  • 509 комментариев
  • 104 публикации
  • ICQ:
11 июля 2013 13:09

xelena

  • Группа: Главный Редактор
  • Регистрация: 19.07.2012
  • Статус: Пользователь offline
 
I opiat' vspominaem priatnoe!!!
-------------------------

REM GENRE Electronic, Pop
REM DATE 1986
PERFORMER "Kim Wilde"
TITLE "Another Step"
FILE "Kim Wilde 1986 side A.flac" WAVE
TRACK 01 AUDIO
TITLE "You Keep Me Hangin' On"
INDEX 01 00:00:00
TRACK 02 AUDIO
TITLE "Hit Him"
INDEX 01 04:18:01
TRACK 03 AUDIO
TITLE "Another Step (Closer To You)"
INDEX 01 07:52:37
TRACK 04 AUDIO
TITLE "The Thrill Of It"
INDEX 01 11:16:04
TRACK 05 AUDIO
TITLE "I've Got So Much Love"
INDEX 01 15:12:52
TRACK 06 AUDIO
TITLE "Schoolgirl"
INDEX 01 19:13:15
FILE "Kim Wilde 1986 side B.flac" WAVE
TRACK 07 AUDIO
TITLE "Say You Really Want Me"
INDEX 01 00:00:00
TRACK 08 AUDIO
TITLE "She Hasn't Got Time For You"
INDEX 01 03:44:01
TRACK 09 AUDIO
TITLE "Brothers"
INDEX 01 08:02:72
TRACK 10 AUDIO
TITLE "Missing"
INDEX 01 12:49:74
TRACK 11 AUDIO
TITLE "How Do You Want My Love"
INDEX 01 17:22:00
TRACK 12 AUDIO
TITLE "Don't Say Nothing's Changed"
INDEX 01 21:22:00

<
  • 1518 комментариев
  • 698 публикаций
  • ICQ:
11 июля 2013 23:15

Ollleg

  • Группа: Vizitor
  • Регистрация: 14.07.2012
  • Статус: Пользователь offline
 
xelena , СПАСИБО ЗА КУЙ! smile-08

<
  • 133 комментария
  • 0 публикаций
  • ICQ:
14 апреля 2016 11:30

StalKer

  • Группа: Меломан
  • Регистрация: 15.03.2016
  • Статус: Пользователь offline
 
Ну что тут скажешь...Великолепно. Воспоминания. Спасибо!!!

Информация
Посетители, находящиеся в группе Гости, не могут оставлять комментарии к данной публикации.