» » C.C.Catch - Альбом Hear What I Say (1989)

 
 
 

C.C.Catch - Альбом Hear What I Say (1989)

Автор: Ollleg от 21-06-2013, 13:54, посмотрело: 2147

3
Vinyl-Rip by Ollleg



C.C.Catch - Альбом Hear What I Say (1989)



Название:
Альбом Hear What I Say

Исполнитель:
C.C.Catch

Жанр: Pop, Eurodisco
Год выпуска: 1989
Количество композиций: 10
Фирма: Metronome Musik GMBH, Hamburg
Номер по каталогу: 841 609-1
Формат: mp3 + lossless
Качество: cbr 320 kbps + flac 16 bit/44,1 kHz + flac 24 bit/96 kHz
Размер файла: 115 mb + 300 mb + 950 mb


Предпрослушивание: lp,mp3-192, SIDE ONE

Предпрослушивание: lp,mp3-192, SIDE TWO

Список композиций:
Side One :
01. Midnight Hour (Cyndi Valentine, Tony Green)
02. Big Time (C.C. Catch, Georg Koppehele, Martin Koppehele)
03. Love Away (C.C. Catch, Dave Clayton, Jo Dworniak)
04. Give Me What I Want (C.C. Catch, Dave Clayton , Jo Dworniak)
05. I'm Gonna Miss You (Mennana Szimanneck, Peter Szimanneck)
Side Two :
06. Backgirl (Andreas Van Kane, Nicholas Marriot)
07. Can't Catch Me (C.C. Catch, Dave Clayton, Jo Dworniak)
08. Hear What I Say (C.C. Catch, Dave Clayton, Jo Dworniak)
09. Nothing's Gonna Change Our Love (C.C. Catch, Dave Clayton, Jo Dworniak)
10. Feels Like Heaven (C.C. Catch, Dave Clayton, Jo Dworniak)







СUE для релиза под спойлером
*любезно предоставил посетитель XELENA :



Скачать C.C.Catch - Альбом Hear What I Say (1989) :
Внимание! У вас нет прав для просмотра скрытого текста.


Релиз понравился ? Скажи автору спасибо !

Категория: Vinyl Rip, pop muzic

Уважаемый посетитель, Вы зашли на сайт как незарегистрированный пользователь.
Мы рекомендуем Вам зарегистрироваться либо войти на сайт под своим именем.
<
  • 509 комментариев
  • 104 публикации
  • ICQ:
9 июля 2013 22:36

xelena

  • Группа: Главный Редактор
  • Регистрация: 19.07.2012
  • Статус: Пользователь offline
 
Vospominanii prodolzhaiutsia!
v takom khoroshem kachesve vpervie slushaiu!
Vsego vam dobrogo!

<
  • 509 комментариев
  • 104 публикации
  • ICQ:
11 июля 2013 13:10

xelena

  • Группа: Главный Редактор
  • Регистрация: 19.07.2012
  • Статус: Пользователь offline
 
REM GENRE Electronic
REM DATE 1989
PERFORMER "C.C. Catch"
TITLE "Hear What I Say"
FILE "C.Catch 1989 side A.flac" WAVE
TRACK 01 AUDIO
TITLE "Midnight Hour"
INDEX 01 00:00:00
TRACK 02 AUDIO
TITLE "Big Time"
INDEX 01 04:34:37
TRACK 03 AUDIO
TITLE "Love Away"
INDEX 01 08:26:38
TRACK 04 AUDIO
TITLE "Give Me What I Want"
INDEX 01 12:33:37
TRACK 05 AUDIO
TITLE "I'm Gonna Miss You"
INDEX 01 16:22:74
FILE "C.Catch 1989 side B.flac" WAVE
TRACK 06 AUDIO
TITLE "Backgirl"
INDEX 01 00:00:00
TRACK 07 AUDIO
TITLE "Can't Catch Me"
INDEX 01 03:33:38
TRACK 08 AUDIO
TITLE "Hear What I Say"
INDEX 01 07:18:01
TRACK 09 AUDIO
TITLE "Nothing's Gonna Change Our Love"
INDEX 01 11:08:02
TRACK 10 AUDIO
TITLE "Feels Like Heaven"
INDEX 01 14:46:71

<
  • 1523 комментария
  • 696 публикаций
  • ICQ:
11 июля 2013 23:15

Ollleg

  • Группа: Vizitor
  • Регистрация: 14.07.2012
  • Статус: Пользователь offline
 
xelena , СПАСИБО ЗА КУЙ! smile-08

Информация
Посетители, находящиеся в группе Гости, не могут оставлять комментарии к данной публикации.