» » Eagles - On the border (1974)

 
 
 

Eagles - On the border (1974)

Автор: Ollleg от 30-05-2013, 09:49, посмотрело: 1030

4
Vinyl-Rip by Ollleg



Eagles - On the border (1974)



Название:
On the border

Исполнитель:
Eagles

Жанр: Rock
Год выпуска: 1974
Количество композиций: 10
Фирма: Asylum records, Canada
Номер по каталогу: 7ES 1004
Формат: mp3 + lossless
Качество: cbr 320 kbps + flac 16 bit/44,1 kHz + flac 24 bit/96 kHz
Размер файла: 105 mb + 274 mb + 879 mb


Предпрослушивание: lp,mp3-190(ПОЛНЫЙ РИП)
SIDE ONE:

SIDE TWO:


Список композиций:
Side one:
01 - ALREADY GONE
02 - YOU NEVER CRY LIKE A LOVER
03 - MIDNIGHT FLYER
04 - MY MAN
05 - ON THE BORDER
Side two:
06 - JAMES DEAN
07 - OL' '55
08 - IS IT TRUE?
09 - GOOD DAY IN HELL
10 - BEST OF MY LOVE







СUE для релиза под спойлером
*любезно предоставил Главный редактор XELENA :

 CUE


Скачать Eagles - On the border (1974), :
Внимание! У вас нет прав для просмотра скрытого текста.


Релиз понравился ? Скажи автору спасибо !

Категория: Vinyl Rip, Rock, Art-rock, Hard-rock

Уважаемый посетитель, Вы зашли на сайт как незарегистрированный пользователь.
Мы рекомендуем Вам зарегистрироваться либо войти на сайт под своим именем.
<
  • 509 комментариев
  • 104 публикации
  • ICQ:
30 мая 2013 13:24

xelena

  • Группа: Главный Редактор
  • Регистрация: 19.07.2012
  • Статус: Пользователь offline
 
Eta rabota Eagles v 24_96 zvucit tak tsel'no! Spasibo za TAKUIU RABOTU!

<
  • 1518 комментариев
  • 698 публикаций
  • ICQ:
30 мая 2013 13:31

Ollleg

  • Группа: Vizitor
  • Регистрация: 14.07.2012
  • Статус: Пользователь offline
 
xelena, меня радует, что Вам нравятся мои оцифровки.
Спасибо за отзывы в комментариях!

<
  • 509 комментариев
  • 104 публикации
  • ICQ:
18 августа 2013 22:40

xelena

  • Группа: Главный Редактор
  • Регистрация: 19.07.2012
  • Статус: Пользователь offline
 
REM GENRE Rock
REM DATE 1974
REM COMMENT Asylum records, Canada\7ES 1004\Vinylrip by Ollleg
PERFORMER "Eagles"
TITLE "On The Border"
FILE "EAGLES - 1974 Side A.flac" WAVE
TRACK 01 AUDIO
TITLE "Already Gone"
INDEX 01 00:00:00
TRACK 02 AUDIO
TITLE "You Never Cry Like A Lover"
INDEX 01 04:14:39
TRACK 03 AUDIO
TITLE "Midnight Flyer"
INDEX 01 08:15:37
TRACK 04 AUDIO
TITLE "My Man"
INDEX 01 12:14:01
TRACK 05 AUDIO
TITLE "On The Border"
INDEX 01 15:48:74
FILE "EAGLES - 1974 Side B.flac" WAVE
TRACK 06 AUDIO
TITLE "James Dean"
INDEX 01 00:00:00
TRACK 07 AUDIO
TITLE "Ol' 55"
INDEX 01 03:36:74
TRACK 08 AUDIO
TITLE "Is It True?"
INDEX 01 07:57:00
TRACK 09 AUDIO
TITLE "Good Day In Hell"
INDEX 01 11:10:73
TRACK 10 AUDIO
TITLE "Best Of My Love"
INDEX 01 15:37:00

<
  • 7 комментариев
  • 0 публикаций
  • ICQ:
21 сентября 2013 16:57

plums

  • Группа: Ветеран проекта
  • Регистрация: 18.08.2013
  • Статус: Пользователь offline
 
Спасибо за релиз. С удовольствием послушал.

Информация
Посетители, находящиеся в группе Гости, не могут оставлять комментарии к данной публикации.