» » БОРИС РУБАШКИН в Москве (1990)

 
 
 

БОРИС РУБАШКИН в Москве (1990)

Автор: Ollleg от 20-05-2013, 14:07, посмотрело: 1407

3
Vinyl-Rip by Ollleg



БОРИС РУБАШКИН в Москве (1990)



Название:
БОРИС РУБАШКИН в Москве

Исполнитель:
БОРИС РУБАШКИН



Большой интерес вызвали у советских слушателей
выступления в начале 1989 года известного лишь по
записям певца Бориса Рубашкина.
Популярный исполнитель русских песен,
оперный певец, композитор,
он впервые побывал на Родине
своего отца, в годы гражданской
войны попавшего за границу.


Жанр: ?
Год выпуска: 1990
Количество композиций: 11
Фирма: МЕЛОДИЯ
Номер по каталогу: С60 28743 000
Формат: mp3 + lossless
Качество: cbr 320 kbps + flac 16 bit/44,1 kHz + flac 24 bit/96 kHz
Размер файла: 121 mb + 286 mb + 979 mb

Предпрослушивание: lp,mp3-190




Список композиций:

Сторона 1 (24.20)
1.СЛАВНОЕ МОРЕ, СВЯЩЕННЫЙ БАЙКАЛ
(слова Дм.Давыдова)
2.ОДНОЗВУЧНО ГРЕМИТ КОЛОКОЛЬЧИК
(слова И.Мкарова)
3.ИЗ-ЗА ОСТРОВА НА СТРЕЖЕНЬ
(слова И.Садовникова)
4.Попурри на темы песен:
СВЯЩЕННАЯ ВОЙНА
(А.В.Александров - В.Лебедев-Кумач)
ЭХ, ДОРОГИ
(А.Г.Новиков - Л.Ошанин)
ВАСЯ-ВАСИЛЁК
(А.Г.Новиков - С.Алымов)
НИЧЕГО НЕ ГОВОРИЛА
(В.Соловьёв-Седой - А.Фатьянов)
ПЕСЕНКА ФРОНТОВОГО ШОФЁРА
(Б.Мокроусов - Н.Лабковский, Б.Ласкин)

Сторона 2 (22.53)
1.ДОЛИНА
2.ОЧИ ЧЁРНЫЕ (слова Е.Гребенки)
3.ПРОЩАЙ, МОЙ ТАБОР (слова В.Маковского)
4.ПОМНЮ, ПОМНЮ
5.ЧУБЧИК
6.МУРКА
7.ЧАЙКА

Инструментальный ансамбль п/р П.Худякова
Запись
из Московского государственного театра эстрады
31 января 1989 года







СUE для релиза под спойлером
*любезно предоставил посетитель XELENA :



Скачать БОРИС РУБАШКИН в Москве:
Внимание! У вас нет прав для просмотра скрытого текста.


Релиз понравился ? Скажи автору спасибо !

Категория: Vinyl Rip, Chanson

Уважаемый посетитель, Вы зашли на сайт как незарегистрированный пользователь.
Мы рекомендуем Вам зарегистрироваться либо войти на сайт под своим именем.
<
  • 509 комментариев
  • 104 публикации
  • ICQ:
4 июня 2013 09:52

xelena

  • Группа: Главный Редактор
  • Регистрация: 19.07.2012
  • Статус: Пользователь offline
 
Obnovliaiu vashi redbooki 24-96imi... Bol'shushchee spasibo! Dobraia muzika v dobrotnom kachestve! RESPECT!!!

<
  • 509 комментариев
  • 104 публикации
  • ICQ:
1 августа 2013 14:53

xelena

  • Группа: Главный Редактор
  • Регистрация: 19.07.2012
  • Статус: Пользователь offline
 
REM GENRE Vocal
REM DATE 1990
REM COMMENT МЕЛОДИЯ\С60 28743 000\Vinylrip by Ollleg
PERFORMER "Борис Рубашкин"
TITLE "Борис Рубашкин В Москве"
FILE "BORIS RUBASHKIN side A.flac" WAVE
TRACK 01 AUDIO
TITLE "Славное Море, Священный Байкал"
INDEX 01 00:00:00
TRACK 02 AUDIO
TITLE "Однозвучно Гремит Колокольчик"
INDEX 01 03:46:58
TRACK 03 AUDIO
TITLE "Из-За Острова На Стрежень"
INDEX 01 08:05:08
TRACK 04 AUDIO
TITLE "Священная Война"
INDEX 01 13:26:04
TRACK 05 AUDIO
TITLE "Эх, Дороги"
INDEX 01 14:42:52
TRACK 06 AUDIO
TITLE "Вася-Василек"
INDEX 01 17:48:30
TRACK 07 AUDIO
TITLE "Ничего Не Говорила"
INDEX 01 19:22:53
TRACK 08 AUDIO
TITLE "Песненка Фронтового Шофера"
INDEX 01 22:22:20
FILE "BORIS RUBASHKIN side B.flac" WAVE
TRACK 09 AUDIO
TITLE "Долина"
INDEX 01 00:00:00
TRACK 10 AUDIO
TITLE "Очи Черные"
INDEX 01 03:33:38
TRACK 11 AUDIO
TITLE "Прощай, Мой Табор"
INDEX 01 07:05:56
TRACK 12 AUDIO
TITLE "Помню, Помню"
INDEX 01 12:02:18
TRACK 13 AUDIO
TITLE "Чубчик"
INDEX 01 13:50:67
TRACK 14 AUDIO
TITLE "Мурка"
INDEX 01 17:01:70
TRACK 15 AUDIO
TITLE "Чайка"
INDEX 01 19:11:67

<
  • 14 комментариев
  • 5 публикаций
  • ICQ:
9 августа 2013 03:46

ded37

  • Группа: Релизёр
  • Регистрация: 6.08.2013
  • Статус: Пользователь offline
 
Порадовал, спасибо!

Информация
Посетители, находящиеся в группе Гости, не могут оставлять комментарии к данной публикации.