» » Ray Charles - SELECTED SONGS (1985)

 
 
 

Ray Charles - SELECTED SONGS (1985)

Автор: Ollleg от 20-05-2013, 09:54, посмотрело: 1347

3
Vinyl-Rip by Ollleg



Ray Charles - SELECTED SONGS (1985)

Ray Charles - SELECTED SONGS (1985)

Ray Charles - SELECTED SONGS (1985)



Название:
Selected songs

Исполнитель:
RAY CHARLES

Жанр: Jazz, Pop
Год выпуска: 1985
Количество композиций: 13
Фирма: BALKANTON Made in Bulgaria
Номер по каталогу: BTA 11890
Формат: mp3 + lossless
Качество: cbr 320 kbps + flac 16 bit/44,1 kHz + flac 24 bit/96 kHz
Размер файла: 107 mb + 250 mb + 820 mb

Предпрослушивание: lp,mp3-190


Список композиций:

Side A
1.I CAN'T STOP LOVING YOU
D.Gibson
2.GORGIA ON MY MIND
S.Gorrell, H.Carmichael
3.HIT THE ROAD JACK
P.Mayfield
4.TAKE THIS CHAINS FROM MY HEART
F.Rose, H.Health
5.RUBY
Roemheld, Parish
6.YESTERDAY
Lennon, Mc.Cartney

Side B
1.TOGETHER AGAIN
B.Owens
2.BUSTED
Howard
3.CRYING TIME
B.Owens
4.DON'T SET ME FREE
B.Owens
5.MAKIN'BELIEVE
P.Mayfield
6.BORN TO LOSE
F.Brown
7.ELEANOR RIGBY
Lennon, Mc Cartney







СUE для релиза под спойлером
*любезно предоставил посетитель XELENA :



Скачать RAY CHARLES - Selected songs:
Внимание! У вас нет прав для просмотра скрытого текста.


Релиз понравился ? Скажи автору спасибо !

Категория: Vinyl Rip, Retro 40x-60x, Jazz, Blues, Soul

Уважаемый посетитель, Вы зашли на сайт как незарегистрированный пользователь.
Мы рекомендуем Вам зарегистрироваться либо войти на сайт под своим именем.
<
  • 509 комментариев
  • 104 публикации
  • ICQ:
20 мая 2013 15:23

xelena

  • Группа: Главный Редактор
  • Регистрация: 19.07.2012
  • Статус: Пользователь offline
 
Wow! Another gem from you! Best wishes!

<
  • 1518 комментариев
  • 698 публикаций
  • ICQ:
20 мая 2013 15:38

Ollleg

  • Группа: Vizitor
  • Регистрация: 14.07.2012
  • Статус: Пользователь offline
 
Легенда! smile-33

<
  • 509 комментариев
  • 104 публикации
  • ICQ:
1 августа 2013 12:22

xelena

  • Группа: Главный Редактор
  • Регистрация: 19.07.2012
  • Статус: Пользователь offline
 
REM GENRE Jazz, Pop
REM DATE 1985
REM COMMENT BALKANTON\BTA 11890\Vinylrip by Ollleg
PERFORMER "Ray Charles"
TITLE "Selected Songs"
FILE "Ray Charles-SELECTED SONGS side A.flac" WAVE
TRACK 01 AUDIO
TITLE "I Can't Stop Loving You"
INDEX 01 00:00:00
TRACK 02 AUDIO
TITLE "Georgia On My Mind"
INDEX 01 04:12:38
TRACK 03 AUDIO
TITLE "Hit The Road Jack"
INDEX 01 07:52:00
TRACK 04 AUDIO
TITLE "Take These Chains From My Heart"
INDEX 01 09:51:39
TRACK 05 AUDIO
TITLE "Ruby"
INDEX 01 12:48:14
TRACK 06 AUDIO
TITLE "Yesterday"
INDEX 01 16:42:01
FILE "Ray Charles-SELECTED SONGS side B.flac" WAVE
TRACK 07 AUDIO
TITLE "Together Again"
INDEX 01 00:00:00
TRACK 08 AUDIO
TITLE "Busted"
INDEX 01 02:41:04
TRACK 09 AUDIO
TITLE "Crying Time"
INDEX 01 04:48:45
TRACK 10 AUDIO
TITLE "Don't Set Me Free"
INDEX 01 07:44:00
TRACK 11 AUDIO
TITLE "Makin' Believe"
INDEX 01 10:22:74
TRACK 12 AUDIO
TITLE "Born To Loose"
INDEX 01 13:16:22
TRACK 13 AUDIO
TITLE "Eleanor Rigby"
INDEX 01 16:32:16

Информация
Посетители, находящиеся в группе Гости, не могут оставлять комментарии к данной публикации.