» » MERIDIANE MELODII (II)(1973)

 
 
 

MERIDIANE MELODII (II)(1973)

Автор: Ollleg от 19-05-2013, 17:03, посмотрело: 1216

2
Vinyl-Rip by Ollleg



MERIDIANE MELODII (II)(1973)

MERIDIANE MELODII (II)(1973)



Название:
MERIDIANE MELODII (II),

Исполнитель:
Разные


Жанр: pop
Год выпуска: 1973
Количество композиций: 13
Фирма: ELECTRECORD made in Romania
Номер по каталогу: STM-EDE 0837
Формат: mp3 + lossless
Качество: cbr 320 kbps + flac 16 bit/44,1 kHz + flac 24 bit/96 kHz
Размер файла: 100 mb + 265 mb + 833 mb



Предпрослушивание: lp,mp3-190


Список композиций:
1.MAI MULTE FLORI
2.BALUL
3.DIMINEATA
4.TAKA TAKATA
5.ASTAZI "DA", MIINE "NU"
6.IUBIREA MEA, TE LAS...
7.PRIMAVERILE

8.FLORICELE (POP CORN)
9.LA ANIVERSARE (II compleano)
10.SI TU VEI AVEA O IUBIRE
11.ERA TIMPUL FLORILOR
12.VAL DE MARE, VAL DE FRUMUSETE
13.BRODWAY







СUE для релиза под спойлером
*любезно предоставил Главный редактор XELENA :

 CUE


Скачать MERIDIANE MELODII (II):
Внимание! У вас нет прав для просмотра скрытого текста.


Релиз понравился ? Скажи автору спасибо !

Категория: Vinyl Rip, pop muzic

Уважаемый посетитель, Вы зашли на сайт как незарегистрированный пользователь.
Мы рекомендуем Вам зарегистрироваться либо войти на сайт под своим именем.
<
  • 1528 комментариев
  • 699 публикаций
  • ICQ:
22 мая 2013 17:32

Ollleg

  • Группа: Vizitor
  • Регистрация: 14.07.2012
  • Статус: Пользователь offline
 
FLAC 24-96:
Внимание! У вас нет прав для просмотра скрытого текста.

ДОБАВИЛ

<
  • 510 комментариев
  • 104 публикации
  • ICQ:
20 августа 2013 16:48

xelena

  • Группа: Главный Редактор
  • Регистрация: 19.07.2012
  • Статус: Пользователь offline
 
REM GENRE Pop
REM DATE 1973
REM COMMENT ELECTRECORD (made in Romania)\STM-EDE 0837\Vinylrip by Ollleg\ (Orchestra Electrocord. Director: Alex Imre)
PERFORMER "MERIDIANE MELODII"
TITLE "MERIDIANE MELODII (II)"
FILE "MERIDIANE MELODII (II) side A ( промыта).flac" WAVE
TRACK 01 AUDIO
TITLE "MAI MULTE FLORI (Merci, merci)"
INDEX 01 00:00:00
TRACK 02 AUDIO
TITLE "BALUL (Bal a papa)"
INDEX 01 02:36:36
TRACK 03 AUDIO
TITLE "DIMINEATA (Talk it over in the Morning)"
INDEX 01 04:46:00
TRACK 04 AUDIO
TITLE "TAKA TAKATA"
INDEX 01 08:01:37
TRACK 05 AUDIO
TITLE "ASTAZI 'DA', MIINE 'NU' (Heute ja, morgen nein)"
INDEX 01 10:34:07
TRACK 06 AUDIO
TITLE "IUBIREA MEA, TE LAS..."
INDEX 01 12:48:00
TRACK 07 AUDIO
TITLE "PRIMAVERILE (Poppa Jo)"
INDEX 01 15:47:74
FILE "MERIDIANE MELODII (II) side B ( промыта).flac" WAVE
TRACK 08 AUDIO
TITLE "FLORICELE (Pop Corn)"
INDEX 01 00:00:00
TRACK 09 AUDIO
TITLE "LA ANIVERSARE (Il compleano)"
INDEX 01 02:39:37
TRACK 10 AUDIO
TITLE "SI TU VEI AVEA O IUBIRE (Les moustaches)"
INDEX 01 05:00:53
TRACK 11 AUDIO
TITLE "ERA TIMPUL FLORILOR (Era il tempo delle more)"
INDEX 01 07:53:00
TRACK 12 AUDIO
TITLE "VAL DE MARE, VAL DE FRUMUSETE (Jennie)"
INDEX 01 11:45:00
TRACK 13 AUDIO
TITLE "BROADWAY"
INDEX 01 14:54:74

Информация
Посетители, находящиеся в группе Гости, не могут оставлять комментарии к данной публикации.