» » Wonderful LOUIS-Louis Armstrong (1968)

 
 
 

Wonderful LOUIS-Louis Armstrong (1968)

Автор: Ollleg от 18-05-2013, 10:59, посмотрело: 1269

3
Vinyl-Rip by Ollleg



Wonderful LOUIS-Louis Armstrong (1968)

Wonderful LOUIS-Louis Armstrong (1968)



Название:
Wonderful LOUIS

Исполнитель:
Louis Armstrong


Жанр: jazz
Год выпуска: 1968
Количество композиций: 12
Фирма: Mercury - INTERNATIONAL, made in Holland
Номер по каталогу: STEREO 134561 MFY
Формат: mp3 + lossless
Качество: cbr 320 kbps + flac 16 bit/44,1 kHz + flac 24 bit/96 kHz
Размер файла: 87 mb + 218 mb + 690 mb


Предпрослушивание: lp,mp3-190


Список композиций:
Side: 1
MAME (J.Herman)
THE CIRCLE OF UOUR ARMS (C.Leigh/ Cy.Coleman)
SO LONG DEARIE (from "Hello Dolly")(J.Herman)
TIN ROOF BLUES (L.Rappo/ P.Mares/ G.Brunies/ S.Pollack/ M.Stitzel/ W.Melrose)
I LIKE THIS KIND OF PARTY (T.Powers/ J.Keller)
WHEN THE SAINTS GO MARCHING IN (adapt. by L.Armstrong)

Side: 2
CHEESECAKE (I.Fields/ L.Armstrong)
TYREE'S BLUES (T.Glenn/ L.Amstrong)
PRETTY LITTLE MISSY (L.Amstrong/ B.Kyle)
FAITH (from "I had a ball") (J.Lawrence/ S.Freeman)
SHORT BUT SWEET (H.Millman/ T.Puglisi)
BYE'N BYE (L.Amstrong)







СUE для релиза под спойлером
*любезно предоставил посетитель XELENA :



Скачать Wonderful LOUIS-Louis Armstrong:
Внимание! У вас нет прав для просмотра скрытого текста.

Релиз понравился ? Скажи автору спасибо !

Категория: Vinyl Rip, Retro 40x-60x, Jazz, Blues, Soul

Уважаемый посетитель, Вы зашли на сайт как незарегистрированный пользователь.
Мы рекомендуем Вам зарегистрироваться либо войти на сайт под своим именем.
<
  • 509 комментариев
  • 104 публикации
  • ICQ:
18 мая 2013 14:28

xelena

  • Группа: Главный Редактор
  • Регистрация: 19.07.2012
  • Статус: Пользователь offline
 
Thanks so much! Graest work!

<
  • 1518 комментариев
  • 697 публикаций
  • ICQ:
18 мая 2013 22:50

Ollleg

  • Группа: Vizitor
  • Регистрация: 14.07.2012
  • Статус: Пользователь offline
 
Цитата: xelena
Thanks so much! Graest work!


Нормально работы, давно хотел по своему джазу пройтись.....Пластиночка запилена, но звучит! Ещё впереди концерт Джери Скотт- тоже попилена, но ведь звучит!!! smile-29

<
  • 509 комментариев
  • 104 публикации
  • ICQ:
31 июля 2013 10:01

xelena

  • Группа: Главный Редактор
  • Регистрация: 19.07.2012
  • Статус: Пользователь offline
 
Louis Armstrong - Wonderful Louis.cue
--------------------------------------------
REM GENRE Jazz
REM DATE 19??
REM COMMENT Фирма: Mercury - INTERNATIONAL, made in Holland / Номер по каталогу: STEREO 134561 MFY
PERFORMER "Louis Armstrong"
TITLE "Wonderful Louis"
FILE "Louis Armstrong Wonderful side A ( промыта)541.flac" WAVE
TRACK 01 AUDIO
TITLE "MAME"
INDEX 01 00:00:00
TRACK 02 AUDIO
TITLE "THE CIRCLE OF YOUR ARMS"
INDEX 01 02:25:00
TRACK 03 AUDIO
TITLE "SO LONG DEARIE"
INDEX 01 05:06:45
TRACK 04 AUDIO
TITLE "TIN ROOF BLUES"
INDEX 01 07:24:00
TRACK 05 AUDIO
TITLE "I LIKE THIS KIND OF PARTY"
INDEX 01 10:26:15
TRACK 06 AUDIO
TITLE "WHEN THE SAINTS GO MARCHING IN"
INDEX 01 13:05:00
FILE "Louis Armstrong Wonderful side B ( промыта)542.flac" WAVE
TRACK 07 AUDIO
TITLE "CHEESECAKE"
INDEX 01 00:00:00
TRACK 08 AUDIO
TITLE "TYREE'S BLUES"
INDEX 01 02:27:08
TRACK 09 AUDIO
TITLE "PRETTY LITTLE MISSY"
INDEX 01 05:11:30
TRACK 10 AUDIO
TITLE "FAITH"
INDEX 01 06:30:62
TRACK 11 AUDIO
TITLE "SHORT BUT SWEET"
INDEX 01 09:18:00
TRACK 12 AUDIO
TITLE "BYE 'N BYE"
INDEX 01 12:03:37

Информация
Посетители, находящиеся в группе Гости, не могут оставлять комментарии к данной публикации.