» » Луи Армстронг (Мелодия С60-05909-10 )

 
 
 

Луи Армстронг (Мелодия С60-05909-10 )

Автор: Ollleg от 17-05-2013, 20:14, посмотрело: 6614

6
Vinyl-Rip by Ollleg



Луи Армстронг (Мелодия С60-05909-10 )

Луи Армстронг (Мелодия С60-05909-10 )




Название:
Луи Армстронг

Исполнитель:
Луи Армстронг


Жанр: jazz
Год выпуска: 197?
Количество композиций: 11
Фирма: Мелодия
Номер по каталогу: С60-05909-10
Формат: mp3 + lossless
Качество: cbr 320 kbps + flac 16 bit/44,1 kHz + flac 24 bit/96 kHz
Размер файла: 105 mb + 246 mb + 799 mb


Предпрослушивание: lp,mp3-190


Список композиций:
Луи Армстронг
Первая сторона:
1.Мэкки-нож (К.Вайль - М.Блитцштейн)
2.Бэсин стрит блюз (С.Вильямс)
3.Я не так уж плох (Т.Вэллер, Э.Резеф)
4.В кольце твоих рук (С.Лай - Дж.Сегал)
5.Вниз по реке (традиционная)
Хор Сай Оливера (5)

Вторая сторона:
1.Мейм (Дж.Герман)
2.Блюз западной окраины (Ж.Оливер)
3.Весь я (С.Сайион, Дж.Макс)
4.Блюз жестяной крыши (Ропполо)
5.Симпатичная девчушка (Л.Армстронг)
6.Тайгер Рэг (Н.Лярокка, Г.Декоста)

На английском языке
Инструментальный ансамбль
С60-05909-10







СUE для релиза под спойлером
*любезно предоставил посетитель XELENA :



Скачать Луи Армстронг (Мелодия С60-05909-10 ):
Внимание! У вас нет прав для просмотра скрытого текста.

Релиз понравился ? Скажи автору спасибо !

Категория: Vinyl Rip, Jazz, Blues, Soul

Уважаемый посетитель, Вы зашли на сайт как незарегистрированный пользователь.
Мы рекомендуем Вам зарегистрироваться либо войти на сайт под своим именем.
<
  • 556 комментариев
  • 102 публикации
  • ICQ:
20 мая 2013 15:21

xelena

  • Группа: ГЛАВНЫЙ РЕДАКТОР
  • Регистрация: 19.07.2012
  • Статус: Пользователь offline
 
Thanks a lot!

<
  • 2077 комментариев
  • 832 публикации
  • ICQ:
20 мая 2013 15:36

Ollleg

  • Группа: Vizitor
  • Регистрация: 14.07.2012
  • Статус: Пользователь offline
 
Цитата: xelena
Thanks a lot!

smile-33

<
  • 556 комментариев
  • 102 публикации
  • ICQ:
23 мая 2013 13:52

xelena

  • Группа: ГЛАВНЫЙ РЕДАКТОР
  • Регистрация: 19.07.2012
  • Статус: Пользователь offline
 
many thanx for 24-96! Take care!

<
  • 556 комментариев
  • 102 публикации
  • ICQ:
1 августа 2013 11:25

xelena

  • Группа: ГЛАВНЫЙ РЕДАКТОР
  • Регистрация: 19.07.2012
  • Статус: Пользователь offline
 
Луи Армстронг - Луи Армстронг.cue
-----------------------------------------
REM GENRE Jazz
REM DATE 197?
REM COMMENT Мелодия\С60-05909-10\vinyl-rip by Ollleg
PERFORMER "Луи Армстронг"
TITLE "Луи Армстронг"
FILE "Louis Armstrong С60-05909-10 side А ( промыта)539.flac" WAVE
TRACK 01 AUDIO
TITLE "Мэкки-Нож"
INDEX 01 00:00:00
TRACK 02 AUDIO
TITLE "Бэсин Стрит Блюз"
INDEX 01 03:25:04
TRACK 03 AUDIO
TITLE "Я Не Так Уж Плох"
INDEX 01 09:05:37
TRACK 04 AUDIO
TITLE "В Кольце Твоих Рук"
INDEX 01 13:11:38
TRACK 05 AUDIO
TITLE "Вниз По Реке"
INDEX 01 15:54:22
FILE "Louis Armstrong С60-05909-10 side В ( промыта)540.flac" WAVE
TRACK 06 AUDIO
TITLE "Мейм"
INDEX 01 00:00:00
TRACK 07 AUDIO
TITLE "Блюз Западной Окраиньі"
INDEX 01 02:25:21
TRACK 08 AUDIO
TITLE "Весь Я"
INDEX 01 06:42:02
TRACK 09 AUDIO
TITLE "Блюз Жестяной Крьіши"
INDEX 01 10:33:73
TRACK 10 AUDIO
TITLE "Симпатичная Девчушка"
INDEX 01 13:38:74
TRACK 11 AUDIO
TITLE "Тайгер Рэг"
INDEX 01 16:04:56

<
  • 0 комментариев
  • 0 публикаций
  • ICQ:
31 августа 2014 10:44

jafi

  • Группа: Гости
  • Регистрация: --
  • Статус:
 
благодарствую за раритет

<
  • 2077 комментариев
  • 832 публикации
  • ICQ:
31 августа 2014 11:20

Ollleg

  • Группа: Vizitor
  • Регистрация: 14.07.2012
  • Статус: Пользователь offline
 
Цитата: jafi
благодарствую за раритет

Рад, что пригодилась запись, вот только "мелодия" - это далеко не раритет.... smile-61

Информация
Посетители, находящиеся в группе Гости, не могут оставлять комментарии к данной публикации.