» » Луи Армстронг - Какой удивительный мир (1978г.)

 
 
 

Луи Армстронг - Какой удивительный мир (1978г.)

Автор: Ollleg от 17-05-2013, 14:06, посмотрело: 3297

5
Vinyl-Rip by Ollleg



Луи Армстронг - Какой удивительный мир (1978г.)



Название:
Какой удивительный мир

Исполнитель:
Луи Армстронг

Жанр: jazz
Год выпуска: 1978
Количество композиций: 11
Фирма: Мелодия
Изготовлено по лицензии фирмы АВС, США
1978г.
Номер по каталогу: С 60-10261-62
Формат: mp3 + lossless
Качество: cbr 320 kbps + flac 16 bit/44,1 kHz + flac 24 bit/96 kHz
Размер файла: 83 mb + 204 mb + 664 mb


Предпрослушивание: lp,mp3-190


Список композиций:

Сторона 1

1.Какой удивительный мир.
What a wonderful world.
(G.D.Weiss, G.Douglas)

2.Кабаре.
Cabaret.
(J.Kander, F.Ebb)

3.Домашний очаг.
The home fire.
(G.D.Weiss, G.Douglas)

4.Помечтай немного обо мне.
Dream a little dream of me.
(W.Schwant, F.Andre, G.Kahn)

5.Подари мне поцелуй.
Give me your kisses.
(L.Whitcup, G.Douglas)

6.Солнечный свет любви.
The sunshine of love.
(L.Whitcup, C.Gierlach, G.Douglas)

Сторона 2

1.Привет, братец.
Hello brother
(G.D.Weiss, B.Thiele)

2.Должен быть выход.
There must be a way
(S.Gallop, D.Saxon)

3.Чудо - это ты!
Fantastic, that's you
(G.Cates, G.Douglas)

4.Пора собираться домой.
I guess i'll get the papers and go home
(H.Prince, D.Rogers, H.Kanner)

5.Hellzapoppin'
(M.Grudeff, R.Jessel)

Изготовлено по лицензии фирмы АВС, США
1978г.








СUE для релиза под спойлером
*любезно предоставил посетитель XELENA :



Скачать Луи Армстронг - Какой удивительный мир (1978г.):
Внимание! У вас нет прав для просмотра скрытого текста.

Релиз понравился ? Скажи автору спасибо !

Категория: Vinyl Rip, Jazz, Blues, Soul

Уважаемый посетитель, Вы зашли на сайт как незарегистрированный пользователь.
Мы рекомендуем Вам зарегистрироваться либо войти на сайт под своим именем.
<
  • 1527 комментариев
  • 699 публикаций
  • ICQ:
22 мая 2013 11:30

Ollleg

  • Группа: Vizitor
  • Регистрация: 14.07.2012
  • Статус: Пользователь offline
 
FLAC 24-96:
Внимание! У вас нет прав для просмотра скрытого текста.


ДОБАВЛЕН smile-33

<
  • 509 комментариев
  • 104 публикации
  • ICQ:
23 мая 2013 13:51

xelena

  • Группа: Главный Редактор
  • Регистрация: 19.07.2012
  • Статус: Пользователь offline
 
Bol'shushchee SPASIBO za 24-96

<
  • 509 комментариев
  • 104 публикации
  • ICQ:
1 августа 2013 10:06

xelena

  • Группа: Главный Редактор
  • Регистрация: 19.07.2012
  • Статус: Пользователь offline
 
I pravda udivitel'niym kazhetsia mir slushaia LUI
-------------------------------------------------------
Луи Армстронг - Какой удивительный мир.cue
-------------------------------------------------------
REM GENRE Jazz
REM DATE 1978
REM COMMENT Фирма: Мелодия\Изготовлено по лицензии фирмы АВС, США\1978г.\ Номер по каталогу: С 60-10261-62
PERFORMER "Louis Armstrong / Луи Армстронг"
TITLE "What A Wonderful World / Какой удивительный мир"
FILE "Louis Armstrong - world side А ( промыта)536.flac" WAVE
TRACK 01 AUDIO
TITLE "What A Wonderful World / Какой удивительный мир"
INDEX 01 00:00:00
TRACK 02 AUDIO
TITLE "Cabaret / Кабаре"
INDEX 01 02:17:37
TRACK 03 AUDIO
TITLE "The Home Fire / Домашний очаг"
INDEX 01 05:01:38
TRACK 04 AUDIO
TITLE "Dream A Little Dream Of Me / Помечтай немного обо мне"
INDEX 01 08:16:45
TRACK 05 AUDIO
TITLE "Give Me Your Kisses / Подари мне поцелуй"
INDEX 01 11:30:00
TRACK 06 AUDIO
TITLE "The Sunshine Of Love / Солнечный свет любви"
INDEX 01 13:27:02
FILE "Louis Armstrong - world side В ( промыта)537.flac" WAVE
TRACK 07 AUDIO
TITLE "Hello Brother / Привет, братец"
INDEX 01 00:00:00
TRACK 08 AUDIO
TITLE "There Must Be A Way / Должен быть выход"
INDEX 01 03:27:37
TRACK 09 AUDIO
TITLE "Fantastic, That's You / Чудо - это ты!"
INDEX 01 06:33:01
TRACK 10 AUDIO
TITLE "I Guess I'll Take The Papers And Go Home / Пора собираться домой"
INDEX 01 09:28:38
TRACK 11 AUDIO
TITLE "Hellzapoppin'"
INDEX 01 12:13:23

<
  • 15 комментариев
  • 0 публикаций
  • ICQ:
17 июля 2015 23:38

lar59

  • Группа: Ветеран проекта
  • Регистрация: 17.07.2015
  • Статус: Пользователь offline
 
К сожалению, мой антивирус 360 TOTAL блокирует все загрузки с файлообменника F-BIT

<
  • 1527 комментариев
  • 699 публикаций
  • ICQ:
17 июля 2015 23:49

Ollleg

  • Группа: Vizitor
  • Регистрация: 14.07.2012
  • Статус: Пользователь offline
 
Цитата: lar59
К сожалению, мой антивирус 360 TOTAL блокирует все загрузки с файлообменника F-BIT

Да то не проблема...поставь F-BIT в исключения ...
или составь список, всё равно с бита надо перезаливать всё на народ.
п.с. но там только старые оцифровки......

Информация
Посетители, находящиеся в группе Гости, не могут оставлять комментарии к данной публикации.