» » LOUIS ARMSTRONG Attention! (1970)

 
 
 

LOUIS ARMSTRONG Attention! (1970)

Автор: Ollleg от 16-05-2013, 12:17, посмотрело: 2318

4
Vinyl-Rip by Ollleg



LOUIS ARMSTRONG Attention! (1970)



Название:
LOUIS ARMSTRONG Attention!

Исполнитель:
LOUIS ARMSTRONG


Жанр: jazz
Год выпуска: 1970
Количество композиций: 10
Фирма: AMIGA
Номер по каталогу: stereo 855 484
Формат: mp3 + lossless
Качество: cbr 320 kbps + flac 16 bit/44,1 kHz + flac 24 bit/96 kHz
Размер файла: 108 mb + 256 mb + 830 mb


Предпрослушивание: lp,mp3-190


Список композиций:
Seite 1

1.We shall overcome
2.Everybody's talkin (Echoes)
3.What a wonderfui world
4.Boy from new Orleans (When the Saints...)
5.The creator has a master plan (Peace)

Seite 2

1.Give peace a chance
2.Mood indigo
3.His father wore long hair
4.My one and only love
5.This black cat has 9 lives

Arrangements: Oliver Nelson
Studio-orchester
Leitung: Oliver Nelson
rec. 1970; New York







Скачать LOUIS ARMSTRONG Attention! (1970):
Внимание! У вас нет прав для просмотра скрытого текста.

Релиз понравился ? Скажи автору спасибо !

Категория: Vinyl Rip, Jazz, Blues, Soul

Уважаемый посетитель, Вы зашли на сайт как незарегистрированный пользователь.
Мы рекомендуем Вам зарегистрироваться либо войти на сайт под своим именем.
<
  • 557 комментариев
  • 102 публикации
  • ICQ:
18 мая 2013 14:27

xelena

  • Группа: ГЛАВНЫЙ РЕДАКТОР
  • Регистрация: 19.07.2012
  • Статус: Пользователь offline
 
Bol'shoe spasibo!

<
  • 1944 комментария
  • 808 публикаций
  • ICQ:
18 мая 2013 22:45

Ollleg

  • Группа: Vizitor
  • Регистрация: 14.07.2012
  • Статус: Пользователь offline
 
Цитата: xelena
Bol'shoe spasibo!


Да не за что! Всегда пожалуйста!
Главное- что бы качество звука устраивало! smile-33

<
  • 557 комментариев
  • 102 публикации
  • ICQ:
20 мая 2013 19:14

xelena

  • Группа: ГЛАВНЫЙ РЕДАКТОР
  • Регистрация: 19.07.2012
  • Статус: Пользователь offline
 
Kachestvo prekrasnoe! Sozdaiot uiut i... legko na dushe!

<
  • 557 комментариев
  • 102 публикации
  • ICQ:
31 июля 2013 09:01

xelena

  • Группа: ГЛАВНЫЙ РЕДАКТОР
  • Регистрация: 19.07.2012
  • Статус: Пользователь offline
 
REM GENRE Jazz
REM DATE 1970
REM COMMENT AMIGA - stereo 855 484
PERFORMER "Louis Armstrong"
TITLE "Attention!"
FILE "LOUIS Attention! side А ( промыта).wav" WAVE
TRACK 01 AUDIO
TITLE "We shall overcome"
INDEX 01 00:00:00
TRACK 02 AUDIO
TITLE "Everybody's talkin (Echoes)"
INDEX 01 06:44:34
TRACK 03 AUDIO
TITLE "What a wonderfui world"
INDEX 01 09:47:67
TRACK 04 AUDIO
TITLE "Boy from new Orleans (When the Saints...)"
INDEX 01 13:11:45
TRACK 05 AUDIO
TITLE "The creator has a master plan (Peace)"
INDEX 01 17:11:01
FILE "LOUIS Attention! side В ( промыта).wav" WAVE
TRACK 06 AUDIO
TITLE "Give peace a chance"
INDEX 01 00:00:00
TRACK 07 AUDIO
TITLE "Mood indigo"
INDEX 01 04:36:38
TRACK 08 AUDIO
TITLE "His father wore long hair"
INDEX 01 07:59:07
TRACK 09 AUDIO
TITLE "My one and only love"
INDEX 01 10:33:53
TRACK 10 AUDIO
TITLE "This black cat has 9 lives"
INDEX 01 13:54:43

Информация
Посетители, находящиеся в группе Гости, не могут оставлять комментарии к данной публикации.