» » ЭЛЛА ФИТЦДЖЕРАЛЬД (1976)

 
 
 

ЭЛЛА ФИТЦДЖЕРАЛЬД (1976)

Автор: Ollleg от 15-05-2013, 17:41, посмотрело: 1645

5
Vinyl-Rip by Ollleg



ЭЛЛА ФИТЦДЖЕРАЛЬД (1976)



Название:
ЭЛЛА ФИТЦДЖЕРАЛЬД

Исполнитель:
ЭЛЛА ФИТЦДЖЕРАЛЬД

Жанр: jazz
Год выпуска: 1976
Количество композиций: 11
Фирма: Мелодия
Номер по каталогу: С60-06017-18
Формат: mp3 + lossless + wav
Качество: cbr 320 kbps + flac 16 bit/44,1 kHz + flac 24 bit/96 kHz
Размер файла: 100 mb + 258 mb + 839 mb

Предпрослушивание: lp,mp3-190


Список композиций:
1.Хелло, Долли
(Херман)

2.Ритм из Джерси
(Райт, Плейтер, Брэдшоу)

3.Ночь в Тунисе
(Ф.Папарелли - Диззи Гиллеспи)

4.Специальная авиапочта
(Гудман - Манди - Крисчен)

5.Для тебя только любовь
(Мак-Хью - Филдс)

6.Приятная Джорджи Браун
(Берни - Кейси - Пинкард)

7.Не шепчи
(Голсон - Фезер)

8.Вся я
(Саймонс - Макс)

9.Мистер Паганини
(Сэм Кослоу)

10.Как раз вовремя
(Стайн, Комден - Грин)

11.Голубая луна
(Роджерс, Харт)

На английском языке
Инструментальный ансамбль
(4 и 5, 9-10-11 без перерыва)







СUE для релиза под спойлером
*любезно предоставил посетитель XELENA :



Скачать ЭЛЛА ФИТЦДЖЕРАЛЬД (1976):
Внимание! У вас нет прав для просмотра скрытого текста.

Релиз понравился ? Скажи автору спасибо !

Категория: Vinyl Rip, Jazz, Blues, Soul

Уважаемый посетитель, Вы зашли на сайт как незарегистрированный пользователь.
Мы рекомендуем Вам зарегистрироваться либо войти на сайт под своим именем.
<
  • 0 комментариев
  • 0 публикаций
  • ICQ:
16 мая 2013 13:23

neono

  • Группа: Гости
  • Регистрация: --
  • Статус:
 
Спасибо огромное за оцифровку любимой пластинки Эллы.Она есть у меня,а теперь буду слушать на на компьютере.С уважением к Вам ваш пользователь с Украины!!

<
  • 509 комментариев
  • 104 публикации
  • ICQ:
18 мая 2013 14:26

xelena

  • Группа: Главный Редактор
  • Регистрация: 19.07.2012
  • Статус: Пользователь offline
 
Dolgozhdannyi v loosless! Ogromnoe spasibo!

<
  • 1518 комментариев
  • 698 публикаций
  • ICQ:
18 мая 2013 22:47

Ollleg

  • Группа: Vizitor
  • Регистрация: 14.07.2012
  • Статус: Пользователь offline
 
Цитата: xelena
Dolgozhdannyi v loosless!

Ага, вроде и по качеству ничего.... smile-27

<
  • 509 комментариев
  • 104 публикации
  • ICQ:
20 мая 2013 18:59

xelena

  • Группа: Главный Редактор
  • Регистрация: 19.07.2012
  • Статус: Пользователь offline
 
Estestvenno! Pervoe znakomstvo s ee tvorchestvom imeenno s etoi plastinki... Spasibo vam ogromnoe!!!

<
  • 509 комментариев
  • 104 публикации
  • ICQ:
27 июля 2013 16:14

xelena

  • Группа: Главный Редактор
  • Регистрация: 19.07.2012
  • Статус: Пользователь offline
 
Элла Фитцджеральд - 1976 - Элла Фитцджеральд.cue
-----------------------------------------------------------------
REM GENRE Jazz
REM DATE 1976
PERFORMER "Элла Фитцджеральд"
TITLE "Элла Фитцджеральд"
FILE "ELLA side А (к.п. промыта).flac" WAVE
TRACK 01 AUDIO
TITLE "Xeллo, Дoлли"
INDEX 01 00:00:00
TRACK 02 AUDIO
TITLE "Pитм Из Джepcи"
INDEX 01 02:56:19
TRACK 03 AUDIO
TITLE "Hoчь B Tуниce"
INDEX 01 06:35:22
TRACK 04 AUDIO
TITLE "Cпeциaльнaя Aвиaпoчтa"
INDEX 01 10:46:37
TRACK 05 AUDIO
TITLE "Для Teбя Toлькo Любoвь"
INDEX 01 14:38:45
FILE "ELLA side В (к.п. промыта).flac" WAVE
TRACK 06 AUDIO
TITLE "Пpиятнaя Джopджи Бpaун"
INDEX 01 00:00:00
TRACK 07 AUDIO
TITLE "Нe Шeпчи"
INDEX 01 03:38:37
TRACK 08 AUDIO
TITLE "Bcя Я"
INDEX 01 06:46:37
TRACK 09 AUDIO
TITLE "Mиcтep Пaгaнини"
INDEX 01 10:14:74
TRACK 10 AUDIO
TITLE "Как Рaз Boврeмя"
INDEX 01 14:25:05
TRACK 11 AUDIO
TITLE "Гoлубaя Лунa"
INDEX 01 16:20:00

Информация
Посетители, находящиеся в группе Гости, не могут оставлять комментарии к данной публикации.