» » Johnny ‎– À l'Olympia

 
 
 

Johnny ‎– À l'Olympia

Автор: shurele от 12-02-2020, 14:02, посмотрело: 249

4
* LP *

Johnny ‎– À l'Olympia

Альбом:
Johnny ‎– À l'Olympia
Имя исполнителя/ группы:
Johnny Hallyday
Музыкальный жанр/ стиль: Rock-n-Roll
Дата записи/ выхода: 1962 / 2016
Всего треков: 15
Выпущен фирмой: Rumble Records
Каталог №: RUM2011118
Файл раздачи: FLAC
Вес архива: 945 mb

Релиз залит на:
yand.Disс

Tracklist:

A1. Laissez Nous Twister
A2. Elle Est Terrible
A3. L'Idole Des Jeunes
A4. C'Est Une Fille Comme Toi
A5. Dans Un Jardin D'Amour
A6. Serre La Main D'Un Fou
A7. Pas Cette Chanson
A8. Retiens La Nuit

B1. La Bagarre
B2. C'Est Le Mashed Potatoes
B3. Comme L'Été Dernier
B4. Viens Danser Le Twist
B5. Mashed Potatoes
B6. Tout Bas, Tout Bas, Tout Bas
B7. C'Est Tellement Bon

"Johnny à l'Olimia" - публикация действительно первого публичного выступления Johnny Hallyday, записанная на виниле и выпущенная 2 ноября 1962 года. Выпущенный в апреле 1961 года фирмой Vogue, альбом "Джонни и его фанаты" запечатлел выступление Халлидея на фестивале Rock'n'Roll, но был сделан в псевдо "live".
Джонни Холлиде́й (или Джонни Халлиде́й, фр. Johnny Hallyday, французское произношение Алиде́, настоящее имя Жан-Филипп Лео Смет (фр. Jean-Philippe Léo Smet); 15 июня 1943, Париж — 5 декабря 2017, Марн-ла-Кокетт) — французский рок-певец, композитор и актёр кино. Джонни Холлидей по праву носил титул рок-звезды Франции. За свою долгую карьеру он провёл более 400 турне, на которых присутствовало более 15 млн зрителей и продал к 2005 году около 80 млн дисков. 18 альбомов Джонни Холлидея стали платиновыми. Тем не менее, он остался в значительной степени неизвестен за пределами франкофонии.


Джонни Халлидей - Википедия



Musiciens:
Les Golden Stars (orchestre de Johnny Hallyday) :

Claude Robbins Djaoui : Guitare
Antonio Rubio : Basse
Marc Hemmler : Piano et orgue
Jean Tosan : Saxophone
Louis Belloni : Batterie

Printed in 2016 by Rumble Records, a trademark of MiruMir Music Publishing - info@rumblerecords.com - Manufactured in EU

Barcode: 8 89397 10510 5


Альбом продюсировал Ли Холлидей.

Код оригинального издания: Philips 77397L

Альбом в оригинальном издании был выпущен в трех разных обложках.

Следующие синглы были извлечены из альбома и выпущены:

10 декабря 1962 года: Elle est terrible - C'est une fille comme toi.
Оригинальный номер: Philips 373080
146 января 1963 года: La bagarre - Statics - I Got a Woman
Оригинальный номер: Philips 432852
Двойной CD выпущенный в 2003 году предлагает версию, идентичную оригинальному альбому (CD1), а также впервые весь концерт (CD 2).
Оригинальный номер: Mercury Universal 077 174-2

Код класса состояния винила: Mint (M)
Устройство воспроизведения: Profi HiFi Sound
Предварительный усилитель: "Marantz"
Программа-оцифровщик: WaveEditor

Скачать:
Внимание! У вас нет прав для просмотра скрытого текста.

==============

Релиз понравился ? Скажи автору спасибо !

Категория: Vinyl Rip

Уважаемый посетитель, Вы зашли на сайт как незарегистрированный пользователь.
Мы рекомендуем Вам зарегистрироваться либо войти на сайт под своим именем.
<
  • 42 комментария
  • 0 публикаций
  • ICQ:
15 февраля 2020 09:49

val2015

  • Группа: Ветеран проекта
  • Регистрация: 4.06.2015
  • Статус: Пользователь offline
 
Неплохо бы еще и cue-файл выложить для удобства или на треки разрезать. А за редкий релиз - спасибо!

<
  • 62 комментария
  • 628 публикаций
  • ICQ:
16 февраля 2020 03:50

shurele

  • Группа: Релизёр
  • Регистрация: 17.03.2018
  • Статус: Пользователь offline
 
Это "живой" альбом. Какие тут треки?

<
  • 42 комментария
  • 0 публикаций
  • ICQ:
21 марта 2020 18:07

val2015

  • Группа: Ветеран проекта
  • Регистрация: 4.06.2015
  • Статус: Пользователь offline
 
Cue-sheet file, если кому-нибудь нужно:
EM DATE 1962
PERFORMER "Johnny Hallyday"
TITLE "Johnny ?– ? l'Olympia (LP 2016)"
FILE "Johnny ?– ? l'Olympia.flac" WAVE
TRACK 01 AUDIO
TITLE "A1. Laissez Nous Twister"
INDEX 01 00:00:00
TRACK 02 AUDIO
TITLE "A2. Elle Est Terrible"
INDEX 01 02:43:00
TRACK 03 AUDIO
TITLE "A3. L'Idole Des Jeunes"
INDEX 01 04:41:00
TRACK 04 AUDIO
TITLE "A4. C'Est Une Fille Comme Toi"
INDEX 01 07:21:00
TRACK 05 AUDIO
TITLE "A5. Dans Un Jardin D'Amour"
INDEX 01 09:02:00
TRACK 06 AUDIO
TITLE "A6. Serre La Main D'Un Fou"
INDEX 01 11:11:00
TRACK 07 AUDIO
TITLE "A7. Pas Cette Chanson"
INDEX 01 14:36:00
TRACK 08 AUDIO
TITLE "A8. Retiens La Nuit"
INDEX 01 17:09:00
TRACK 09 AUDIO
TITLE "B1. La Bagarre"
INDEX 01 20:14:00
TRACK 10 AUDIO
TITLE "B2. C'Est Le Mashed Potatoes"
INDEX 01 24:03:50
TRACK 11 AUDIO
TITLE "B3. Comme L'?t? Dernier"
INDEX 01 27:07:00
TRACK 12 AUDIO
TITLE "B4. Viens Danser Le Twist"
INDEX 01 29:37:00
TRACK 13 AUDIO
TITLE "B5. Mashed Potatoes"
INDEX 01 32:34:00
TRACK 14 AUDIO
TITLE "B6. Tout Bas, Tout Bas, Tout Bas"
INDEX 01 34:37:00
TRACK 15 AUDIO
TITLE "B7. C'Est Tellement Bon"
INDEX 01 37:23:50

<
  • 62 комментария
  • 628 публикаций
  • ICQ:
21 марта 2020 19:39

shurele

  • Группа: Релизёр
  • Регистрация: 17.03.2018
  • Статус: Пользователь offline
 
val2015, спасибо. Думаю многим пригодится.

Информация
Посетители, находящиеся в группе Гости, не могут оставлять комментарии к данной публикации.